<?xml version="1.0" standalone="no"?>
<!DOCTYPE svg PUBLIC "-//W3C//DTD SVG 1.1//EN" "http://www.w3.org/Graphics/SVG/1.1/DTD/svg11.dtd" >
<svg xmlns="http://www.w3.org/2000/svg" xmlns:xlink="http://www.w3.org/1999/xlink" version="1.1">
<metadata></metadata>
<defs>
<font id="roboto_monolight" horiz-adv-x="1229" >
<font-face units-per-em="2048" ascent="1536" descent="-512" />
<missing-glyph horiz-adv-x="500" />
<glyph horiz-adv-x="0" />
<glyph horiz-adv-x="0" />
<glyph />
<glyph unicode="&#x9;" />
<glyph unicode=" " />
<glyph unicode="!" d="M654 435h-120v1021h120v-1021zM514 72q0 35 23 59.5t62 24.5q40 0 63.5 -24.5t23.5 -59.5q0 -34 -24 -57t-63 -23t-62 23t-23 57z" />
<glyph unicode="&#x22;" d="M509 1410l-16 -320h-91l4 310l-1 136h105zM812 1410l-16 -320h-91l5 310l-1 136h105z" />
<glyph unicode="#" d="M729 410h-314l-77 -410h-99l77 410h-255v93h272l83 441h-279v96h297l79 416h99l-79 -416h315l79 416h99l-79 -416h230v-96h-248l-83 -441h256v-93h-274l-77 -410h-99zM432 503h315l83 441h-315z" />
<glyph unicode="$" d="M961 359q0 64 -25 112.5t-69 85.5t-103.5 65t-127.5 52q-83 27 -156.5 62t-129 84t-88 116t-32.5 159q0 85 28 152.5t77.5 115.5t117.5 76.5t147 35.5v202h102v-203q86 -8 153.5 -42t114.5 -91.5t72.5 -136.5t27.5 -176h-119q-1 75 -22 138t-60 108t-94.5 70.5 t-125.5 25.5q-63 0 -117.5 -18t-95 -53t-63.5 -85.5t-24 -116.5q0 -67 24.5 -115.5t68 -85t104 -64t131.5 -52.5q84 -28 157.5 -62.5t128 -83.5t86.5 -115.5t32 -157.5q0 -86 -29.5 -153.5t-80.5 -115t-120.5 -75.5t-150.5 -35v-190h-103v189q-85 6 -160.5 34.5t-132.5 82 t-91 133t-36 187.5h120q1 -88 30 -151t76.5 -104t109 -60t129.5 -18q64 0 122 18t101.5 53t69.5 86t26 117z" />
<glyph unicode="%" d="M44 1184q0 55 16.5 107.5t48 94t79 66.5t109.5 25q63 0 110.5 -25.5t79 -66.5t48 -93.5t16.5 -107.5v-77q0 -54 -16.5 -106t-48 -93t-78.5 -66t-109 -25q-63 0 -110.5 25t-79.5 65.5t-48.5 93t-16.5 106.5v77zM140 1107q0 -36 9 -72.5t28.5 -65.5t49.5 -47t72 -18 t71 18.5t48 47.5t28 65t9 72v77q0 37 -9 73.5t-28 66t-49 48t-72 18.5t-71.5 -18.5t-48.5 -48t-28 -66.5t-9 -73v-77zM673 348q1 54 17 106.5t48 93.5t79 66t110 25t110 -25t79 -66t48.5 -93.5t17.5 -106.5v-78q-1 -55 -17 -107t-48 -93t-79 -66t-109 -25q-63 0 -110.5 25 t-79.5 66t-48.5 93t-17.5 107v78zM770 270q0 -37 9 -73.5t28 -66t49 -47.5t73 -18q42 0 71.5 18t48 47.5t27.5 66t9 73.5v78q0 37 -9 73.5t-27.5 65.5t-48.5 47t-73 18t-72.5 -18t-48.5 -47t-27.5 -65.5t-8.5 -73.5v-78zM357 159l-77 46l594 1088l77 -46z" />
<glyph unicode="&#x26;" d="M417 791q-33 43 -60.5 86t-48 87t-32 89.5t-11.5 93.5q0 73 22.5 134t64.5 104.5t102 67.5t134 24q64 0 116.5 -22.5t90 -61.5t58 -91t20.5 -111q0 -49 -16 -91.5t-42.5 -80t-61.5 -71t-73 -63.5l-118 -100l372 -470q44 72 68 158t26 178h110q0 -121 -34 -227.5 t-100 -196.5l180 -227h-143l-113 142q-77 -74 -170.5 -118t-202.5 -44q-92 0 -169 27t-132.5 77t-87 120.5t-31.5 157.5q0 67 22 125.5t59 110t86.5 97.5t105.5 89zM555 81q94 -1 172 37t139 104l-378 479l-10 12l-37 -32q-90 -77 -138.5 -159.5t-47.5 -159.5 q0 -63 22.5 -115t62 -88.5t94.5 -57t121 -20.5zM386 1149q-1 -74 32 -145.5t84 -141.5l132 109q60 46 92.5 101.5t33.5 118.5q0 37 -12.5 70t-35 58.5t-54 40.5t-70.5 15q-49 0 -86.5 -18.5t-63 -49.5t-39 -72t-13.5 -86z" />
<glyph unicode="'" d="M628 1395l-18 -305h-94l5 296v150h107v-141z" />
<glyph unicode="(" d="M381 588q0 172 35 334t95.5 300t143 244t178.5 166l29 -81q-85 -61 -152 -161t-113.5 -226.5t-71 -272.5t-24.5 -300v-20q0 -153 24.5 -299.5t71 -273t113.5 -227.5t152 -164l-29 -77q-97 61 -179.5 166.5t-143 243t-95 299t-34.5 334.5v15z" />
<glyph unicode=")" d="M823 573q0 -173 -34.5 -334.5t-95 -299t-143 -243t-179.5 -166.5l-29 77q85 61 152 162t113.5 228t71 274t24.5 300v20q0 154 -25.5 301t-72.5 274t-114 227.5t-149 161.5l29 77q96 -60 178.5 -166t143 -244t95.5 -300t35 -334v-15z" />
<glyph unicode="*" d="M570 853l-386 111l36 113l380 -142l-11 407h118l-18 -410l373 146l38 -114l-387 -116l268 -320l-98 -71l-244 342l-235 -339l-96 68z" />
<glyph unicode="+" d="M673 740h444v-117h-444v-477h-120v477h-434v117h434v466h120v-466z" />
<glyph unicode="," d="M601 35q0 -44 -9.5 -88t-27 -87t-43.5 -82.5t-60 -72.5l-76 48q88 125 88 279v156h128v-153z" />
<glyph unicode="-" horiz-adv-x="1230" d="M970 601h-741v101h741v-101z" />
<glyph unicode="." d="M542 85q0 42 27.5 71.5t74.5 29.5q48 0 75.5 -29.5t27.5 -71.5t-27.5 -69.5t-75.5 -27.5q-47 0 -74.5 27.5t-27.5 69.5z" />
<glyph unicode="/" d="M391 -125h-112l608 1581h112z" />
<glyph unicode="0" d="M1075 576q0 -122 -27 -230.5t-83 -189.5t-142 -128.5t-205 -47.5q-118 0 -204.5 47.5t-143 128.5t-84 189.5t-28.5 230.5v303q1 122 28 230.5t83.5 190.5t142.5 129.5t204 47.5q119 0 205.5 -47.5t142.5 -129t83.5 -190.5t27.5 -231v-303zM278 558q0 -41 3 -78l657 595 q-14 64 -39 119t-64.5 95t-93.5 63t-125 23q-93 0 -157.5 -39t-104.5 -105t-58 -152t-18 -180v-341zM955 899q0 33 -3 65l-654 -594q15 -62 41 -115t65 -91.5t92 -60.5t122 -22q93 0 157.5 39.5t104 105.5t57.5 152t18 180v341z" />
<glyph unicode="1" d="M742 0h-120v1305l-403 -173v113l506 211h17v-1456z" />
<glyph unicode="2" d="M1043 0h-913v92l477 541q53 60 97.5 115t77 108.5t50.5 107.5t18 111q0 66 -22 121t-62.5 94.5t-96.5 61.5t-125 22q-77 0 -137 -26t-101.5 -71t-64 -106.5t-23.5 -134.5h-120q1 90 33 170t90 140t139.5 95t183.5 35q96 0 174.5 -28.5t134.5 -81t86.5 -126t30.5 -162.5 q0 -72 -25.5 -140t-66 -133t-92 -126t-102.5 -119l-407 -459h766v-101z" />
<glyph unicode="3" d="M402 793h121q70 1 132 20t108.5 55t73.5 88t27 120q0 71 -22 126.5t-62 93.5t-96.5 58t-125.5 20t-127 -21.5t-100.5 -60.5t-67 -94.5t-25.5 -123.5h-120q2 86 35.5 159.5t91.5 127.5t138 84.5t175 30.5q93 0 171 -27.5t134.5 -79t88 -126.5t31.5 -171 q0 -54 -17.5 -103.5t-50.5 -92t-80 -76t-105 -54.5q136 -38 208 -130.5t72 -220.5q0 -98 -34.5 -175t-95 -130t-142 -81.5t-175.5 -28.5q-96 0 -180 28.5t-147 82t-100 130.5t-39 174h119q2 -72 29 -130t73.5 -99t109 -63t135.5 -22q71 0 131.5 20t104 59t68 97t24.5 134 q0 80 -29.5 136.5t-79.5 92.5t-117 53t-142 18h-121v102z" />
<glyph unicode="4" d="M888 469h228v-101h-228v-368h-119v368h-685v68l673 1020h131v-987zM228 469h541v836l-57 -101z" />
<glyph unicode="5" d="M260 746l71 710h728v-116h-626l-50 -487q54 37 124 58.5t150 21.5q99 0 179 -34.5t136 -97t86 -149t30 -188.5q0 -101 -26 -189t-79.5 -153.5t-135 -103.5t-192.5 -38q-91 0 -168.5 27t-136 79t-95 127t-46.5 170h116q9 -71 35 -127t68 -95t99 -59.5t128 -20.5 q80 0 139 29t98 80.5t57.5 121t18.5 150.5q0 76 -22.5 142t-65.5 115t-104.5 77t-139.5 28q-46 0 -84.5 -6t-72 -19.5t-64 -33t-60.5 -46.5z" />
<glyph unicode="6" d="M863 1467v-109h-18q-146 -1 -251 -49t-174 -128.5t-105 -186.5t-43 -221q28 40 67 74t85.5 58t99.5 37.5t109 13.5q105 0 183.5 -40.5t131 -107t78.5 -153t26 -178.5q0 -96 -27.5 -185.5t-82 -158.5t-135 -111t-186.5 -42q-114 0 -201.5 45.5t-147.5 120t-91 170.5 t-32 198v129q0 104 16 205.5t50 192.5t88 169t131 134.5t179 89t232 33.5h18zM614 853q-57 0 -111.5 -18t-100.5 -50t-80.5 -77.5t-51.5 -100.5v-95q0 -94 26 -173.5t72.5 -136.5t111 -89t141.5 -31q76 0 134.5 33t98 87.5t60 125t20.5 145.5t-20.5 143.5t-61 121t-100 84 t-138.5 31.5z" />
<glyph unicode="7" d="M1082 1387l-622 -1387h-125l618 1349h-828v107h957v-69z" />
<glyph unicode="8" d="M1066 1081q0 -59 -18.5 -111t-50.5 -94.5t-76.5 -75t-97.5 -53.5q60 -21 111.5 -55t89 -80t58.5 -103t21 -123q0 -99 -37 -175t-100.5 -127t-147.5 -77.5t-177 -26.5q-94 0 -178.5 26t-148 77.5t-100.5 127.5t-37 175q0 66 20.5 123t57.5 102.5t87.5 80t110.5 55.5 q-53 21 -96.5 53.5t-75.5 75t-49.5 94.5t-17.5 111q0 93 32.5 166t89.5 124t134 78t167 27q89 0 167.5 -27t136.5 -78t91.5 -124t33.5 -166zM983 385q0 72 -28 130t-75.5 98t-110 61.5t-130.5 21.5q-69 0 -131.5 -21.5t-109 -61.5t-74 -98t-27.5 -130q0 -74 27.5 -131 t74 -95.5t109 -58t133.5 -19.5q69 0 131 20t109 58.5t74.5 95t27.5 130.5zM946 1082q0 65 -25 119t-67.5 92.5t-98.5 59.5t-118 21q-63 0 -118 -20.5t-96.5 -58t-65 -92t-23.5 -121.5t24.5 -119.5t66 -89t97 -56t117.5 -19.5t117.5 19.5t97.5 56t67 89.5t25 119z" />
<glyph unicode="9" d="M382 97q153 1 257.5 47.5t170 125.5t95.5 184t33 224q-26 -44 -62.5 -80.5t-82.5 -63.5t-101 -42t-119 -15q-104 0 -182 42.5t-130.5 111.5t-79 156.5t-26.5 177.5q0 98 28.5 189.5t84 163t137.5 114.5t190 44q126 0 213.5 -49.5t143 -131.5t81 -186.5t25.5 -213.5v-116 q0 -100 -13.5 -197t-44.5 -184.5t-81.5 -162t-125.5 -129t-177 -85.5t-234 -32h-27l1 108h26zM588 580q60 0 115.5 19.5t102 55t81 84t52.5 106.5v61q0 97 -22 182t-65 148.5t-107 100t-148 36.5q-78 0 -138 -34.5t-101.5 -90.5t-63 -128.5t-21.5 -149.5q0 -72 20 -142 t60 -125t99 -89t136 -34z" />
<glyph unicode=":" d="M596 85q0 42 27.5 71.5t74.5 29.5q48 0 75.5 -29.5t27.5 -71.5t-27.5 -69.5t-75.5 -27.5q-47 0 -74.5 27.5t-27.5 69.5zM596 961q0 42 27.5 71.5t74.5 29.5q48 0 75.5 -29.5t27.5 -71.5t-27.5 -69.5t-75.5 -27.5q-47 0 -74.5 27.5t-27.5 69.5z" />
<glyph unicode=";" d="M592 961q0 42 27.5 71.5t74.5 29.5q48 0 75.5 -29.5t27.5 -71.5t-27.5 -69.5t-75.5 -27.5q-47 0 -74.5 27.5t-27.5 69.5zM744 35q0 -44 -9.5 -88t-27 -87t-43.5 -82.5t-60 -72.5l-76 48q88 125 88 279v156h128v-153z" />
<glyph unicode="&#x3c;" d="M302 656l721 -300v-126l-857 379v96l857 378v-125z" />
<glyph unicode="=" d="M1066 812h-892v106h892v-106zM1066 401h-892v106h892v-106z" />
<glyph unicode="&#x3e;" d="M918 660l-735 302v123l874 -378v-96l-874 -379v123z" />
<glyph unicode="?" d="M540 404q1 63 9.5 109.5t26.5 85.5t48.5 74.5t75.5 76.5q39 37 75.5 75.5t65.5 81t46 90.5t17 105q0 61 -19 111t-54.5 84.5t-86.5 53.5t-115 19q-59 0 -110.5 -17t-90.5 -49t-62.5 -79.5t-25.5 -108.5h-120q3 82 35 148.5t86.5 113.5t128 72.5t159.5 25.5 q91 0 164 -26.5t124 -75.5t79 -117.5t28 -153.5q0 -69 -21.5 -129.5t-56.5 -114t-81 -100t-94 -87.5q-33 -30 -54 -59t-34 -61.5t-18 -68.5t-5 -79h-120zM517 72q0 35 23 59.5t62 24.5t63 -24.5t24 -59.5q0 -34 -24 -57t-63 -23t-62 23t-23 57z" />
<glyph unicode="@" d="M1165 775q-2 -45 -8 -98t-18.5 -106t-32 -102t-48.5 -87t-68 -60.5t-89 -22.5q-37 0 -65 13.5t-47.5 36t-32 52.5t-18.5 63q-18 -33 -40 -63t-48.5 -52.5t-57.5 -36t-66 -13.5q-41 0 -71 17.5t-51 47t-34 68.5t-20 82t-8 87t2 84q8 99 33.5 186t68 151.5t103 102 t137.5 37.5q32 0 58 -8t47.5 -20.5t39 -28.5t34.5 -33l-1 -1l-48 -504q-2 -34 1 -67t13.5 -59.5t29.5 -42.5t49 -16q33 0 58.5 18.5t45 49t32.5 71t21 84t12 87.5t5 83q5 135 -18 245.5t-74 189t-130.5 121t-187.5 42.5q-103 0 -195.5 -46.5t-163.5 -134.5t-115 -216.5 t-49 -291.5q-5 -122 16 -232t75.5 -193t147.5 -131.5t233 -48.5q31 0 65.5 5.5t67.5 15t63.5 23t54.5 29.5l27 -81q-27 -19 -61.5 -34.5t-72 -26t-75.5 -16t-72 -5.5q-110 0 -195.5 26t-148 72.5t-105 111t-67.5 141.5t-34.5 164.5t-6.5 179.5q3 103 23 201t56 184.5t88 159 t119.5 125t149.5 81.5t178 29q139 0 234 -55t153 -149t82 -219.5t20 -265.5zM432 685q-2 -27 -2 -59t3.5 -64.5t11 -62.5t20 -53.5t31.5 -37.5t45 -14q35 0 64 17.5t53 46t43.5 66t34.5 76.5l44 440q-18 14 -40 23.5t-52 9.5q-66 0 -111.5 -34t-75.5 -89t-46 -124.5 t-23 -140.5z" />
<glyph unicode="A" d="M905 406h-554l-129 -406h-121l474 1456h108l470 -1456h-120zM385 513h486l-242 766z" />
<glyph unicode="B" d="M194 0v1456h398q88 -1 171.5 -23.5t148.5 -69t104.5 -118t38.5 -170.5q0 -62 -19 -111.5t-51.5 -88t-76.5 -67t-95 -47.5q63 -15 116.5 -46t92.5 -76.5t61.5 -103.5t22.5 -125q1 -97 -36 -172.5t-100 -128t-145.5 -80.5t-172.5 -29h-458zM314 700v-596h341q66 1 126 22.5 t105.5 60.5t72 94.5t26.5 126.5q0 69 -25.5 122.5t-70 90.5t-103 57t-122.5 22h-350zM314 803h293q63 1 122 18t104.5 51t73.5 85t28 121q0 73 -29 124.5t-77 84t-109 48t-125 16.5h-281v-548z" />
<glyph unicode="C" d="M1099 442q-12 -98 -49 -182.5t-98 -147t-144.5 -97.5t-187.5 -35q-87 0 -157.5 26.5t-125 72.5t-94.5 108t-66 133.5t-38.5 148.5t-13.5 153v211q1 76 13.5 153t38.5 148.5t66 133.5t94.5 108.5t125 73t157.5 26.5q106 0 189.5 -35t144.5 -97.5t97.5 -147.5t47.5 -185 h-119q-12 75 -38.5 141t-70.5 115.5t-106 78t-145 28.5q-71 0 -126 -24t-96.5 -64t-70.5 -93.5t-47 -113.5t-26.5 -122.5t-8.5 -121.5v-213q0 -59 8.5 -122t26.5 -123t47 -113.5t70.5 -94t96.5 -64.5t126 -24q84 0 146.5 27.5t106 76.5t70 115t37.5 142h119z" />
<glyph unicode="D" d="M177 0v1456h352q140 -2 250 -55t186 -142t116 -207.5t42 -252.5v-143q-2 -134 -42 -252.5t-116 -207.5t-186 -141.5t-250 -54.5h-352zM297 1354v-1253h232q117 2 205.5 48t147.5 122.5t89.5 176t31.5 208.5v146q-1 108 -31.5 207t-89.5 175t-147.5 122t-205.5 48h-232z " />
<glyph unicode="E" d="M962 698h-642v-594h740v-104h-859v1456h855v-105h-736v-549h642v-104z" />
<glyph unicode="F" d="M974 680h-644v-680h-120v1456h861v-105h-741v-566h644v-105z" />
<glyph unicode="G" d="M1097 173q-43 -51 -95 -88t-110.5 -60.5t-122.5 -34t-130 -10.5q-87 1 -159.5 27.5t-130.5 73t-101 109t-71.5 134.5t-43.5 150.5t-16 156.5v204q1 76 14.5 153t41 148.5t68.5 133t97 107.5t126.5 72.5t157.5 26.5q97 0 179.5 -31.5t144.5 -88t100.5 -135.5t48.5 -175 h-118q-14 70 -42.5 130t-72.5 103t-103.5 67.5t-135.5 24.5q-70 0 -126 -23.5t-98.5 -63t-73 -92t-50 -112t-28.5 -122t-10 -121.5v-206q1 -61 11.5 -125t31.5 -124.5t53 -114.5t76.5 -94.5t101.5 -64t129 -24.5q45 -1 93 4.5t93.5 20t85 39.5t68.5 63l1 376h-345v104h459z " />
<glyph unicode="H" d="M1069 0h-113v698h-684v-698h-113v1456h113v-654h684v654h113v-1456z" />
<glyph unicode="I" d="M193 1456h843v-108h-365v-1242h365v-106h-843v106h354v1242h-354v108z" />
<glyph unicode="J" d="M902 1456h122v-1014q-2 -98 -36 -182t-94.5 -146t-143.5 -98t-182 -36t-180.5 30.5t-140.5 87t-94 135.5t-42 177h122q3 -72 28 -132.5t68.5 -103.5t103.5 -66.5t135 -23.5q76 0 137 29t104.5 78t67 114t25.5 137v1014z" />
<glyph unicode="K" d="M508 721l-187 -199v-522h-121v1456h121v-779l179 206l492 573h149l-552 -647l592 -809h-146z" />
<glyph unicode="L" d="M340 104h741v-104h-861v1456h120v-1352z" />
<glyph unicode="M" d="M321 1456l293 -824l312 824h157v-1456h-117v645l9 651l-323 -858h-78l-300 844l10 -637v-645h-117v1456h154z" />
<glyph unicode="N" d="M1068 0h-119l-668 1229l-1 -1229h-119v1456h119l668 -1227l1 1227h119v-1456z" />
<glyph unicode="O" d="M1103 631q-1 -74 -13 -151.5t-37.5 -150t-64.5 -136t-92.5 -111t-123.5 -75t-157 -27.5q-86 0 -156 27.5t-124.5 75t-94 111.5t-65 136.5t-38 149.5t-13.5 151v192q1 74 13.5 151.5t37.5 150t64.5 136.5t93.5 112t123.5 75.5t156.5 27.5t157 -27.5t124.5 -75t93.5 -111.5 t64.5 -136.5t37.5 -150t13 -152.5v-192zM985 825q-1 58 -9 121t-26 123t-46.5 114.5t-69.5 95.5t-96 65t-125 24t-124.5 -24.5t-95.5 -65.5t-69.5 -95.5t-46.5 -114.5t-26 -123t-9 -120v-194q1 -58 9.5 -120.5t26.5 -123t46.5 -115t69.5 -95.5t96 -65.5t125 -24.5 q71 0 125.5 24.5t95.5 65.5t69.5 95.5t46 115t25 123t8.5 120.5v194z" />
<glyph unicode="P" d="M336 600v-600h-120v1456h458q96 -2 179.5 -32t146 -85.5t98.5 -134.5t36 -179t-36 -178.5t-98.5 -133t-146.5 -83.5t-179 -30h-338zM336 701h338q72 1 134 24t108 64t72.5 100t26.5 134t-26 136t-72 103.5t-108 66t-135 25.5h-338v-653z" />
<glyph unicode="Q" d="M1127 640q-1 -83 -16 -167.5t-46 -162t-78.5 -143t-112.5 -110.5l250 -235l-83 -76l-276 257q-33 -11 -69.5 -17t-77.5 -6q-89 0 -161.5 27.5t-129 75t-98 112t-68.5 137.5t-40.5 152t-14.5 156v174q1 77 14 156t40 153t68.5 138t98 112t128.5 75.5t161 27.5t161.5 -27.5 t129 -75t97.5 -112t68.5 -138t40.5 -153t14 -156.5v-174zM1008 816q-1 61 -9.5 126t-28 126t-49.5 115.5t-73.5 95.5t-101 65t-130.5 24t-129.5 -24t-100 -65t-73.5 -96t-49.5 -116t-28.5 -125.5t-10 -125.5v-176q1 -61 10 -125.5t28.5 -126t50 -116t73.5 -96t100.5 -65.5 t130.5 -24t130.5 24t101 65t73 96t48.5 116.5t27.5 126t9.5 125.5v176z" />
<glyph unicode="R" d="M682 609h-360v-609h-118v1456h411q96 -2 181 -31t148.5 -83.5t100 -133.5t36.5 -181q0 -73 -21.5 -133t-59.5 -108.5t-90.5 -85.5t-115.5 -63l332 -624v-13h-125zM322 710h317q68 2 127 26t102.5 65.5t68 99.5t24.5 127q0 77 -27 137t-73.5 101.5t-110 63.5t-136.5 24 h-292v-644z" />
<glyph unicode="S" d="M990 358q0 51 -15.5 91.5t-43 72.5t-63.5 56.5t-77 43.5t-84 34t-83 28q-51 16 -103.5 35.5t-102 45t-93 58t-76 73.5t-51 91.5t-18.5 112.5q0 91 40.5 161t105.5 118t146.5 72.5t164.5 24.5q93 0 177 -30.5t147.5 -85.5t101.5 -133.5t41 -174.5h-121q-8 71 -35 129.5 t-72 100.5t-105.5 65.5t-133.5 23.5q-61 0 -120.5 -16.5t-107 -50t-77 -84t-29.5 -118.5q0 -73 34.5 -124t87.5 -86t116.5 -58.5t120.5 -40.5q53 -16 107 -36.5t104.5 -47.5t94.5 -60.5t76.5 -76.5t51 -95.5t18.5 -116.5q0 -96 -41.5 -167t-107.5 -118.5t-150 -71 t-170 -23.5q-96 0 -186 28t-160.5 82t-114.5 133.5t-47 181.5h121q9 -78 41.5 -138.5t83.5 -101t118 -61t144 -20.5q64 0 125.5 16t110.5 49.5t79 85t30 123.5z" />
<glyph unicode="T" d="M1139 1351h-464v-1351h-117l1 1351h-465v105h1045v-105z" />
<glyph unicode="U" d="M1071 1456l1 -987q-2 -99 -34.5 -188t-91.5 -155.5t-143 -106t-188 -39.5q-105 0 -189 39t-143 106t-92 156t-34 188l2 987h113l3 -987q1 -75 24 -144.5t66 -123t106 -85.5t144 -32t143.5 32t105 85.5t65 123t24.5 144.5l2 987h116z" />
<glyph unicode="V" d="M609 181l397 1275h127l-467 -1456h-111l-467 1456h127z" />
<glyph unicode="W" d="M348 330l8 -102l12 102l212 1126h104l212 -1126l12 -105l9 105l149 1126h112l-205 -1456h-119l-222 1214l-223 -1214h-119l-205 1456h113z" />
<glyph unicode="X" d="M629 834l369 622h141l-439 -718l453 -738h-140l-382 642l-383 -642h-141l453 738l-439 718h141z" />
<glyph unicode="Y" d="M600 662l389 794h136l-467 -908l-2 -548h-112l-2 548l-467 908h139z" />
<glyph unicode="Z" d="M266 104h794v-104h-930l-2 93l765 1258h-741v105h880l1 -88z" />
<glyph unicode="[" d="M798 1562h-231v-1772h231v-102h-346v1976h346v-102z" />
<glyph unicode="\" d="M256 1456h113l608 -1581h-113z" />
<glyph unicode="]" d="M430 1664h346v-1976h-346v102h230v1772h-230v102z" />
<glyph unicode="^" d="M361 667h-116l325 789h89l324 -789h-116l-253 626l-1 2v-2z" />
<glyph unicode="_" d="M1054 -101h-881v101h881v-101z" />
<glyph unicode="`" d="M775 1232h-104l-218 266h144z" />
<glyph unicode="a" d="M937 0q-11 33 -17 73.5t-8 82.5q-31 -38 -72 -70t-89.5 -55.5t-104.5 -37t-117 -13.5q-76 0 -141.5 22t-114 62t-76 96.5t-27.5 126.5q0 93 41 158t111 105.5t162 59.5t193 19h234v123q-1 61 -24 107.5t-62.5 78t-94 47.5t-118.5 16q-58 0 -110.5 -15t-93 -43 t-65.5 -68.5t-27 -91.5l-120 1q3 69 36.5 127t90.5 100.5t132.5 66.5t161.5 24t161.5 -22t131 -66t88 -110t33.5 -154v-524q0 -54 9.5 -109t23.5 -105l1 -12h-128zM542 86q63 -1 120.5 15t105.5 44.5t85 68t58 86.5v237h-218q-79 0 -152 -12t-129 -39.5t-89.5 -73.5 t-33.5 -115q0 -49 20 -88t54 -66.5t80 -42t99 -14.5z" />
<glyph unicode="b" d="M1072 530q0 -105 -25.5 -204.5t-78 -176t-132.5 -123t-190 -46.5q-104 0 -188.5 42.5t-141.5 122.5l-5 -145h-112v1536h120v-605q55 81 137.5 126t187.5 45q111 0 192 -45.5t133 -122t77.5 -176t25.5 -207.5v-21zM951 551q0 81 -17 161t-55 143.5t-101.5 103t-156.5 39.5 q-54 0 -101 -16t-85.5 -44t-67.5 -67.5t-48 -85.5v-505q20 -44 50.5 -80.5t70 -62t86 -39.5t97.5 -14q91 0 153.5 39t101 102.5t56 143.5t17.5 161v21z" />
<glyph unicode="c" d="M632 81q60 0 114.5 17.5t96.5 50.5t68.5 79.5t30.5 105.5h115q-4 -77 -40 -142t-94 -112t-133 -73.5t-158 -26.5q-119 0 -207 45t-146.5 120t-88 172.5t-29.5 202.5v42q0 105 29.5 202.5t88 172.5t146.5 120t206 45q90 0 166.5 -28.5t133 -80t89.5 -122t37 -154.5h-115 q-3 61 -28 113t-66 90t-96.5 59t-120.5 21q-94 0 -160.5 -38t-108.5 -100t-61.5 -140.5t-19.5 -159.5v-42q0 -82 19.5 -161t61.5 -140.5t108.5 -99.5t161.5 -38z" />
<glyph unicode="d" d="M157 551q0 108 27 207.5t80.5 176t134 122t189.5 45.5q103 0 184.5 -44t136.5 -123v601h119v-1536h-112l-5 141q-57 -78 -140 -119.5t-185 -41.5q-107 0 -187.5 46.5t-134 123t-80.5 176t-27 204.5v21zM278 530q0 -81 17.5 -161t56.5 -143.5t102 -102.5t154 -39 q51 0 96.5 13t84 37.5t69 59t51.5 77.5v524q-20 45 -49.5 82t-67.5 64t-84 42t-98 15q-92 0 -155 -39.5t-102.5 -103t-57 -143.5t-17.5 -161v-21z" />
<glyph unicode="e" d="M655 -20q-113 0 -206 42t-159.5 114t-103 168.5t-37.5 205.5v43q1 116 38.5 216t102.5 174t153 116.5t189 42.5q108 0 191 -39t139.5 -106.5t86 -157.5t30.5 -193v-73h-810v-23q1 -85 29 -162.5t79 -136.5t123 -94.5t160 -35.5q100 -1 181 37t138 110l76 -57 q-30 -42 -71 -77.5t-91.5 -60.5t-110.5 -39t-127 -14zM632 1000q-73 0 -134 -27.5t-107 -76.5t-76 -115.5t-41 -145.5h685v13q-2 67 -24.5 130.5t-64 112.5t-101.5 79t-137 30z" />
<glyph unicode="f" horiz-adv-x="1230" d="M1028 984h-431l2 -984h-124l1 984h-295v98h296v86q1 111 34.5 187t91 123.5t134 68t163.5 20.5q57 0 111 -7t110 -20l-15 -102q-42 11 -91 18t-103 7q-65 0 -121.5 -14t-99.5 -47.5t-68 -90.5t-26 -143v-86h431v-98z" />
<glyph unicode="g" d="M159 551q0 108 26 207.5t79.5 176t134 122t190.5 45.5q104 0 186.5 -44.5t137.5 -125.5l5 150h112v-1063q-1 -99 -31 -182t-86.5 -142.5t-136.5 -92.5t-180 -33q-48 0 -100 11t-102 34t-95.5 57.5t-79.5 82.5l67 72q129 -156 302 -156q77 0 137 25t100.5 70.5t62 109 t22.5 139.5v123q-57 -76 -139.5 -116.5t-183.5 -40.5q-108 0 -188.5 46.5t-133.5 123t-79.5 176t-26.5 204.5v21zM279 530q0 -81 17.5 -161t56.5 -143.5t102 -102.5t154 -39q51 0 97 13.5t84.5 38.5t69 60.5t50.5 79.5v515q-20 45 -49 83t-67 65.5t-84 43t-99 15.5 q-92 0 -155 -39.5t-102.5 -103t-57 -143.5t-17.5 -161v-21z" />
<glyph unicode="h" d="M313 873q57 104 152 166t217 63q89 0 157.5 -27.5t115 -80t71 -129t24.5 -174.5v-691h-120v691q0 72 -17 129t-51.5 96.5t-86.5 60.5t-122 21q-57 0 -109 -18t-96 -50t-78.5 -75.5t-56.5 -95.5v-759h-120v1536h120v-663z" />
<glyph unicode="i" d="M221 1082h502v-976h368v-106h-870v106h382v869h-382v107zM568 1378q0 37 21 64t70 27q48 0 69.5 -27t21.5 -64q0 -35 -21.5 -61.5t-69.5 -26.5q-49 0 -70 26.5t-21 61.5z" />
<glyph unicode="j" d="M301 1082h510v-1082q0 -102 -27.5 -183t-80 -137.5t-128.5 -86.5t-173 -30q-57 0 -104.5 3.5t-102.5 13.5l8 99q18 -3 44.5 -5.5t54 -4t52.5 -2t40 -0.5q60 0 114 17t94.5 56.5t64.5 103t24 156.5v975h-390v107zM652 1379q0 37 20.5 63.5t69.5 26.5q48 0 70 -26.5 t22 -63.5q0 -35 -22 -61.5t-70 -26.5q-49 0 -69.5 26.5t-20.5 61.5z" />
<glyph unicode="k" d="M490 547l-153 -137v-410h-121v1536h121v-988l129 127l439 407h153l-483 -456l533 -626h-154z" />
<glyph unicode="l" d="M221 1536h504v-1430h366v-106h-870v106h384v1323h-384v107z" />
<glyph unicode="m" d="M197 1082l3 -121q33 63 90.5 101.5t145.5 39.5q46 0 81.5 -10.5t61.5 -29.5t44 -45.5t29 -57.5q34 61 93.5 101.5t148.5 41.5q70 0 117 -24t76 -65t41.5 -95t12.5 -114l-1 -804h-112l-1 804q0 35 -7 70t-24.5 63t-49 45t-80.5 16q-50 -1 -84.5 -16t-57 -39t-35 -53.5 t-18.5 -59.5l-1 -830h-112l-1 815q0 34 -7 67t-24.5 59t-48.5 42t-79 15t-81.5 -15t-56 -37.5t-36 -54t-21.5 -63.5l-1 -828h-113v1082h108z" />
<glyph unicode="n" d="M303 1082l9 -203q57 101 152 161.5t216 61.5q178 0 272 -106.5t95 -302.5v-693h-120v691q-1 149 -68 228.5t-208 78.5q-58 0 -110.5 -19t-96 -52t-77 -78t-54.5 -98v-751h-120v1082h110z" />
<glyph unicode="o" d="M131 557q1 110 34 209t94.5 173.5t151 118.5t202.5 44q114 0 203.5 -44t151.5 -118.5t95 -173.5t34 -209v-33q-1 -110 -33.5 -209t-94.5 -173.5t-151 -118t-203 -43.5t-203.5 43.5t-151.5 118t-95 173.5t-34 209v33zM251 524q0 -86 24 -166t70 -141.5t113.5 -98.5 t156.5 -37q88 0 155.5 37t113 98.5t69.5 141.5t24 166v33q0 85 -24 165t-70 141.5t-114 99t-156 37.5t-155.5 -37.5t-113 -99t-69.5 -141.5t-24 -165v-33z" />
<glyph unicode="p" d="M1068 530q0 -105 -25.5 -204.5t-78 -176t-132.5 -123t-190 -46.5q-101 0 -185 39t-141 113v-548h-120v1498h112l5 -148q57 80 140 124t187 44q111 0 192 -45.5t133 -122t77.5 -176t25.5 -207.5v-21zM948 551q0 81 -18 161t-58 143.5t-103.5 103t-155.5 39.5 q-52 0 -97.5 -14.5t-83 -41t-67 -63t-49.5 -80.5v-536q42 -84 120 -133t179 -49q91 0 154.5 40t103 103.5t57.5 144t18 161.5v21z" />
<glyph unicode="q" d="M158 551q0 108 26 207.5t79.5 176t135 122t192.5 45.5q101 0 182.5 -42.5t137.5 -120.5l6 143h112v-1498h-120v546q-58 -73 -140 -111.5t-180 -38.5q-110 0 -191 46.5t-134 123t-79.5 176t-26.5 204.5v21zM279 530q0 -81 18 -161.5t57.5 -144t102.5 -103.5t154 -40 q99 0 176.5 49t121.5 131v546q-21 42 -51 77.5t-67.5 61t-82.5 40t-95 14.5q-92 0 -155.5 -40t-103 -103.5t-57.5 -144t-18 -161.5v-21z" />
<glyph unicode="r" d="M909 1102q45 0 90 -5.5t75 -15.5l-15 -115q-42 9 -84 14t-86 5q-152 0 -258 -72t-149 -221l1 -692h-124v1082h115l8 -188v-22q66 107 175 168.5t252 61.5z" />
<glyph unicode="s" d="M948 275q0 50 -25 87t-68.5 63.5t-100.5 44.5t-121 31q-78 16 -151 38.5t-130 57.5t-91 85.5t-34 124.5q0 70 35 125t92 93t130 57.5t150 19.5q88 0 164.5 -21.5t134 -63t91.5 -101.5t37 -137h-120q-2 52 -28 93.5t-69 69.5t-97.5 43t-112.5 15q-54 0 -105.5 -11.5 t-92 -35t-65 -59t-24.5 -83.5q-1 -51 23.5 -85.5t66.5 -58t98.5 -39t120.5 -28.5q82 -17 156.5 -41.5t131.5 -61t90 -89.5t33 -127q0 -76 -36.5 -132.5t-96 -94t-136 -56t-157.5 -18.5q-91 0 -171.5 22t-142 63.5t-98.5 101.5t-40 136h120q6 -64 38.5 -107t80 -68.5 t103.5 -36t110 -10.5q55 0 109.5 11.5t98 35t71 60t28.5 87.5z" />
<glyph unicode="t" d="M592 1359v-277h401v-98h-401v-681q1 -63 19.5 -104.5t50 -67t74 -36.5t92.5 -11t102.5 7t89.5 14l18 -91q-43 -17 -105 -25.5t-126 -8.5q-72 0 -133 17.5t-106 56t-71 100t-27 150.5v680h-301v98h301v277h122z" />
<glyph unicode="u" d="M919 169q-54 -89 -142.5 -139t-209.5 -50q-90 0 -158.5 29t-115 85t-71 137t-24.5 185v666h119v-668q2 -163 66 -247t198 -84q135 0 219 62t117 168l-1 769h121v-1082h-112z" />
<glyph unicode="v" d="M608 162l5 -21l6 21l372 920h125l-455 -1082h-98l-456 1082h125z" />
<glyph unicode="w" d="M324 351l32 -192l40 192l183 731h84l183 -731l40 -197l35 197l148 731h111l-240 -1082h-97l-191 740l-32 173l-32 -173l-189 -740h-97l-240 1082h111z" />
<glyph unicode="x" d="M624 640l336 442h145l-412 -531l428 -551h-142l-353 461l-353 -461h-143l428 551l-412 531h143z" />
<glyph unicode="y" d="M600 220l22 -59l391 921h136l-559 -1255q-22 -49 -52 -96t-71 -84.5t-94.5 -60.5t-122.5 -23q-24 0 -53 4.5t-49 9.5l14 100q17 -2 42.5 -4.5t42.5 -2.5q46 0 84 18t67.5 46.5t52 64t37.5 69.5l74 160l-486 1054h135z" />
<glyph unicode="z" d="M305 101h793v-101h-950l1 88l736 891h-714v103h875l-1 -89z" />
<glyph unicode="{" d="M974 -404q-91 15 -159 57.5t-113.5 104t-68.5 139t-24 161.5v208q-1 140 -71 207t-207 70v27h-1v27v22l1 28q136 3 206.5 69.5t71.5 205.5v210q1 84 23 161.5t66.5 140t113 105.5t161.5 58l19 -79q-74 -14 -124 -49.5t-80.5 -87t-44 -115.5t-14.5 -134v-210 q-2 -124 -60.5 -208t-173.5 -120q115 -36 173.5 -120.5t60.5 -207.5v-208q1 -71 17 -134t49 -113.5t82.5 -85.5t116.5 -49z" />
<glyph unicode="|" d="M665 -332h-101v1788h101v-1788z" />
<glyph unicode="}" d="M330 -324q67 14 116.5 49t82.5 85.5t49 114t17 133.5v208q1 123 60 207.5t174 120.5q-115 36 -174 120t-60 208v210q-1 70 -14.5 134t-44 115.5t-80.5 87t-123 49.5l18 79q93 -15 161.5 -58t113.5 -105.5t67 -140t22 -161.5v-210q1 -139 71.5 -205.5t206.5 -69.5v-28h1 l-1 -25l1 -24h-1v-27q-136 -3 -206.5 -70.5t-71.5 -206.5v-208q0 -84 -23 -161.5t-68.5 -139t-114 -104t-159.5 -57.5z" />
<glyph unicode="~" d="M1168 746q-1 -63 -20.5 -121.5t-56 -103.5t-89 -71.5t-119.5 -26.5q-46 0 -86.5 10.5t-78 30t-73 46t-71.5 58.5q-27 23 -54 43.5t-55.5 36t-58.5 24t-63 8.5q-46 0 -81 -18t-58.5 -48.5t-36 -70.5t-13.5 -84l-95 8q1 64 20.5 122t55.5 102t88 70t120 26q46 0 87 -11 t79 -30.5t73.5 -46t71.5 -56.5q28 -24 54.5 -45t54.5 -36t57.5 -24t62.5 -9q46 0 81 19t59 50t36.5 72t13.5 85z" />
<glyph unicode="&#xa0;" />
<glyph unicode="&#xa1;" d="M558 654h120v-1019h-120v1019zM699 1020q0 -34 -23.5 -58t-62.5 -24t-62.5 23.5t-23.5 58.5t23.5 59t62.5 24q38 0 62 -24t24 -59z" />
<glyph unicode="&#xa2;" d="M637 81q60 0 114.5 17.5t96.5 50.5t68.5 79.5t30.5 105.5h115q-4 -70 -34 -130t-79 -106t-114 -75.5t-138 -38.5v-229h-121v229q-103 11 -180 59.5t-128 121.5t-76.5 164.5t-25.5 190.5v42q0 97 25.5 189t76.5 165t128 121.5t180 60.5v220h121v-220q78 -9 143.5 -41 t113.5 -82t76.5 -116t31.5 -142h-115q-3 61 -28 113t-66 90t-96.5 59t-120.5 21q-94 0 -160.5 -38t-108.5 -100t-61.5 -140.5t-19.5 -159.5v-42q0 -82 19.5 -161t61.5 -140.5t108.5 -99.5t161.5 -38z" />
<glyph unicode="&#xa3;" d="M441 647l9 -280q1 -72 -13 -142.5t-52 -123.5h748v-101h-995v101h97q31 12 50.5 42.5t29.5 69.5t13 80t2 74l-9 280h-187v101h184l-9 291q0 93 28 172.5t80.5 138.5t127.5 92.5t169 33.5q91 0 163.5 -28.5t122.5 -80t77 -122.5t28 -156h-120q-1 67 -22 120.5t-57.5 90 t-87.5 55.5t-113 19q-66 0 -117.5 -26t-87 -71.5t-53.5 -106.5t-18 -131l9 -291h344v-101h-341z" />
<glyph unicode="&#xa4;" d="M956 116q-63 -63 -144 -99.5t-178 -36.5t-178 36t-144 98l-127 -140l-84 86l135 148q-51 77 -77.5 168t-26.5 187q0 99 29 193t83 172l-143 159l84 87l139 -153q62 57 139.5 90t170.5 33t171 -33.5t140 -91.5l141 156l85 -88l-146 -162q53 -78 81 -171t28 -191 q0 -94 -26 -184.5t-75 -166.5l138 -152l-85 -87zM246 563q0 -85 27 -169.5t77.5 -151.5t122.5 -109t161 -42t160.5 42t122 109t77.5 151.5t27 169.5q0 84 -27 168t-77.5 151t-122 108.5t-160.5 41.5t-160.5 -41.5t-122 -108.5t-78 -150.5t-27.5 -168.5z" />
<glyph unicode="&#xa5;" d="M614 733l423 723h139l-454 -751h370v-87h-420v-206h420v-86h-420v-326h-120v326h-414v86h414v206h-414v87h368l-453 751h138z" />
<glyph unicode="&#xa6;" d="M543 -270v771h120v-771h-120zM663 698h-120v758h120v-758z" />
<glyph unicode="&#xa7;" d="M1121 431q0 -55 -18 -99t-49 -78t-73.5 -57.5t-92.5 -38.5q42 -23 77 -51.5t60 -64.5t38.5 -80.5t13.5 -100.5q0 -90 -38 -157t-102 -111t-149.5 -66t-179.5 -22q-99 0 -189.5 25t-159.5 78t-111 134t-43 194l120 2q2 -86 34 -148t84.5 -103t121 -60.5t143.5 -19.5 q69 0 132 16t111 47.5t77 78.5t29 110q0 64 -27.5 108t-77 76.5t-117.5 56t-148 46.5q-91 24 -176.5 54.5t-152.5 76.5t-107 112t-40 162q0 54 16.5 98t46 78.5t70.5 59.5t90 40q-40 23 -73 51t-56 64t-36 80t-13 98q0 88 38 154.5t102.5 111.5t149.5 67.5t180 22.5 q107 0 194 -29t148.5 -84t95 -135t35.5 -183h-120q-2 72 -27.5 132.5t-71.5 104t-110.5 68t-143.5 24.5q-72 0 -135.5 -15.5t-111 -47t-75.5 -79t-28 -110.5q0 -67 27 -112.5t76 -78.5t117.5 -56.5t151.5 -46.5q91 -25 176.5 -54.5t151.5 -74t105.5 -109t39.5 -159.5z M598 729q-36 10 -70.5 20t-66.5 21q-48 -6 -90 -22.5t-73 -43t-49 -64.5t-18 -87q-1 -71 30.5 -118t86 -80t127.5 -57t157 -47q31 -9 61.5 -18t59.5 -19q49 6 93.5 22t79 42t55 63t21.5 87q1 67 -32 114t-89 80.5t-129.5 58.5t-153.5 48z" />
<glyph unicode="&#xa8;" d="M310 1396q0 33 22 57t60 24t60.5 -24t22.5 -57q0 -32 -22.5 -55.5t-60.5 -23.5t-60 23.5t-22 55.5zM748 1395q0 33 22 57t60 24t60.5 -24t22.5 -57q0 -32 -22.5 -55.5t-60.5 -23.5t-60 23.5t-22 55.5z" />
<glyph unicode="&#xa9;" d="M853 449q1 -47 -13 -89.5t-43.5 -75t-75 -51t-106.5 -18.5q-67 0 -114.5 27t-78.5 70t-45.5 96.5t-14.5 105.5v67q0 52 14.5 104.5t45.5 94.5t78.5 68.5t114.5 26.5q61 0 106.5 -18t75 -49t44 -73t13.5 -89h-79q-2 31 -10 59t-26.5 49t-48.5 33.5t-75 12.5 q-49 0 -81.5 -20.5t-52.5 -52.5t-29 -70.5t-9 -74.5v-68q0 -36 9 -75.5t29 -72t52.5 -54t81.5 -22.5q45 0 75 13t48 35t26 51t10 60h79zM158 546q0 -91 31 -179.5t90.5 -158.5t146 -113.5t197.5 -43.5t197 43.5t145.5 113.5t90.5 159t31 179q0 89 -31 176t-90.5 155.5 t-146 111t-196.5 42.5q-111 0 -197.5 -42.5t-146 -111t-90.5 -155.5t-31 -176zM87 546q0 105 36.5 205t105.5 178.5t168.5 126.5t225.5 48t225.5 -48t168 -126.5t105 -178.5t36.5 -205q0 -107 -36.5 -208.5t-105 -181.5t-168 -128.5t-225.5 -48.5q-84 0 -156.5 22.5t-132 62 t-105.5 93t-77.5 116.5t-48 132.5t-16.5 140.5z" />
<glyph unicode="&#xaa;" d="M816 705q-8 26 -14 53.5t-8 56.5q-36 -53 -97 -88t-142 -36q-53 0 -99.5 14t-80.5 41.5t-53.5 68t-19.5 93.5q0 62 26.5 106t72 71.5t105.5 41t127 13.5h159v61q-2 81 -43 129.5t-124 49.5q-39 0 -74.5 -8t-62 -25.5t-43 -44.5t-18.5 -65l-108 6q3 55 27.5 98.5t66 73.5 t96 45.5t116.5 15.5q64 0 114.5 -19t86.5 -55t55 -87t20 -115v-314q0 -93 27 -181h-112zM575 786q31 0 65 10t64.5 27t54 40t33.5 50v145h-158q-42 0 -82 -8t-71.5 -25.5t-51 -45t-19.5 -67.5q0 -33 13 -57t35 -39.5t52 -22.5t65 -7z" />
<glyph unicode="&#xab;" d="M368 520l276 -388h-105l-295 379v19l295 379h105zM703 520l276 -388h-105l-295 379v19l295 379h105z" />
<glyph unicode="&#xac;" d="M1009 386h-119v284h-692v106h811v-390z" />
<glyph unicode="&#xad;" horiz-adv-x="1230" d="M970 601h-741v101h741v-101z" />
<glyph unicode="&#xae;" d="M84 539q0 107 36.5 207.5t105.5 178.5t168.5 125.5t225.5 47.5q84 0 156.5 -21.5t131.5 -60t105.5 -91t77.5 -115t47.5 -131.5t16.5 -140q0 -107 -36.5 -207.5t-105 -179t-168 -126t-225.5 -47.5t-225.5 47.5t-168.5 126t-105.5 179t-36.5 207.5zM154 539 q0 -91 31 -178.5t91 -156.5t146.5 -111t197.5 -42t197 42.5t145.5 111.5t90.5 156.5t31 177.5q0 91 -31 178.5t-90.5 156t-146 110.5t-196.5 42q-111 0 -197.5 -42t-146.5 -110.5t-91 -156t-31 -178.5zM494 491v-257h-80v622h207q105 -2 164.5 -49.5t59.5 -135.5 q-1 -58 -36.5 -97t-100.5 -58l152 -282h-84l-134 257h-148zM494 565h139q63 2 97 31t34 74q1 55 -33.5 82t-109.5 29h-127v-216z" />
<glyph unicode="&#xaf;" d="M949 1359h-670v97h670v-97z" />
<glyph unicode="&#xb0;" d="M370 1226q0 51 19.5 96t53 79.5t78.5 54.5t95 20q49 0 93 -20t77 -54.5t52 -80t19 -95.5q0 -51 -19 -95.5t-51.5 -78t-76.5 -53t-94 -19.5t-95 19.5t-78.5 52.5t-53 78t-19.5 96zM460 1226q0 -33 12 -61t33 -49t49.5 -33t61.5 -12q32 0 59.5 12t48 33t32 49t11.5 61 t-11.5 62t-31.5 50.5t-47.5 34t-60.5 12.5t-61.5 -12.5t-49.5 -34t-33 -50.5t-12 -62z" />
<glyph unicode="&#xb1;" d="M681 829h391v-101h-391v-439h-111v439h-414v101h414v438h111v-438zM1038 -1h-835v102h835v-102z" />
<glyph unicode="&#xb2;" d="M922 667h-571v75l289 283q28 27 53 53.5t43.5 53t29.5 53.5t11 54q0 33 -12 59t-33.5 44t-50.5 27.5t-63 9.5q-83 0 -130.5 -43.5t-50.5 -118.5h-106q1 55 23 101t59.5 79t89 51.5t113.5 18.5q57 0 106 -15t85 -44t56 -71t20 -96q0 -42 -15.5 -79.5t-41.5 -73t-59 -69 t-69 -67.5l-213 -198h437v-87z" />
<glyph unicode="&#xb3;" d="M533 1108h78q36 0 69 8t58.5 24.5t41 41.5t15.5 60q0 33 -12.5 58.5t-35 42.5t-53 26t-66.5 9q-35 0 -65 -8.5t-53.5 -25t-37.5 -41.5t-16 -57h-105q2 52 24.5 93t60 69t86.5 43t104 15q57 0 107 -14t87.5 -42t59 -69.5t21.5 -96.5q-1 -65 -43 -109t-107 -66 q75 -19 120.5 -64.5t45.5 -123.5q0 -56 -23.5 -98t-63 -70.5t-92 -43t-109.5 -14.5q-55 0 -106.5 14t-92 42.5t-66 71.5t-27.5 102h106q2 -35 17.5 -61.5t41 -44.5t59 -27.5t71.5 -9.5q37 0 69.5 9t57 27t38.5 44.5t14 61.5q0 41 -17 68.5t-45 43.5t-64 23t-74 7h-78v82z " />
<glyph unicode="&#xb4;" d="M634 1498h145l-230 -266h-99z" />
<glyph unicode="&#xb5;" d="M324 1082v-633q1 -87 17 -155.5t48 -115.5t81 -72t117 -25q72 0 125.5 18t91.5 51t62 78.5t37 100.5v753h120v-1082h-109l-7 162q-46 -84 -122 -132.5t-189 -49.5q-90 0 -158.5 34.5t-113.5 95.5v-526h-118v1498h118z" />
<glyph unicode="&#xb6;" d="M830 0v520h-106q-111 0 -201.5 34t-155 95.5t-99.5 147.5t-35 191q0 104 35 190t99.5 147.5t155 95.5t201.5 35h226v-1456h-120z" />
<glyph unicode="&#xb7;" d="M534 717q0 34 23 58.5t62 24.5t62.5 -24.5t23.5 -58.5t-23.5 -58t-62.5 -24t-62 24t-23 58z" />
<glyph unicode="&#xb8;" d="M624 0l-12 -64q33 -5 62.5 -17t52.5 -32t36.5 -50t13.5 -72q0 -52 -24 -89t-64.5 -61.5t-94 -36.5t-111.5 -13l-7 78q33 0 69 6t65 19.5t48.5 36.5t19.5 58q0 32 -14 52t-38.5 31.5t-56.5 17t-66 9.5l28 127h93z" />
<glyph unicode="&#xb9;" d="M743 665h-105v663l-232 -70v90l324 107h13v-790z" />
<glyph unicode="&#xba;" d="M291 1141q0 70 22.5 131t64 106.5t101.5 71.5t135 26q76 0 135.5 -26t101 -71.5t64 -106.5t22.5 -131v-117q0 -70 -22.5 -131t-63.5 -106t-100.5 -71t-134.5 -26q-76 0 -136 26t-102 71t-64.5 106t-22.5 131v117zM399 1024q1 -50 14.5 -93.5t40.5 -76t67.5 -51 t94.5 -18.5q52 0 92 19t67 51t40.5 75.5t14.5 93.5v117q-1 49 -15 92.5t-41 76t-67 51.5t-93 19t-93 -19t-67 -51.5t-40.5 -76t-14.5 -92.5v-117z" />
<glyph unicode="&#xbb;" d="M350 944l294 -384v-19l-294 -379h-106l276 388l-276 394h106zM695 944l294 -384v-19l-294 -379h-106l276 388l-276 394h106z" />
<glyph unicode="&#xbc;" d="M358.217 751h-94.502v596.716l-208.806 -63.001v81.002l291.607 96.3027h11.7002v-711.02zM366 179l-81 48l523 1048l83 -48zM1039.62 247.507h114.304v-79.2021h-114.304v-168.305h-94.502v168.305h-359.109l-3.60059 59.4014l357.31 482.413h99.9023v-462.612z M685.01 247.507h260.107v345.609l-27.9004 -45.001z" />
<glyph unicode="&#xbd;" d="M324 179l-81 48l523 1048l83 -48zM355.217 747h-94.502v596.716l-208.806 -63.001v81.002l291.607 96.3027h11.7002v-711.02zM1163.62 0h-513.914v67.502l260.107 254.707q25.2002 24.3008 47.7012 48.1514t39.1514 47.7012t26.5508 48.1514t9.90039 48.6016 q0 29.7002 -10.8008 53.1006q-10.7998 23.4014 -30.1504 39.6016t-45.4512 24.751q-26.1016 8.5498 -56.7021 8.5498q-74.7021 0 -117.453 -39.1514q-42.751 -39.1504 -45.4512 -106.652h-95.4023q0.899414 49.501 20.7002 90.9023t53.5518 71.1016 q33.751 29.7012 80.1025 46.3516q46.3506 16.6504 102.152 16.6504q51.3018 0 95.4023 -13.5q44.1016 -13.501 76.502 -39.6016q32.4014 -26.1006 50.4014 -63.9014q18.001 -37.8018 18.001 -86.4023q0 -37.8018 -13.9502 -71.5518q-13.9502 -33.751 -37.3516 -65.7021 q-23.4004 -31.9512 -53.1016 -62.1016q-29.7002 -30.1514 -62.1016 -60.752l-191.705 -178.205h393.311v-78.3018z" />
<glyph unicode="&#xbe;" d="M438 174l-81 48l523 1048l83 -48zM1067.62 248.507h114.304v-79.2021h-114.304v-168.305h-94.502v168.305h-359.109l-3.60059 59.4014l357.31 482.413h99.9023v-462.612zM713.01 248.507h260.107v345.609l-27.9004 -45.001zM226.013 1141.81h70.2021 q32.4004 0 62.1016 7.2002t52.6514 22.0508t36.9014 37.3506q13.9502 22.501 13.9502 54.002q0 29.7012 -11.251 52.6514q-11.25 22.9502 -31.5 38.251q-20.251 15.3008 -47.7021 23.4004q-27.4502 8.10059 -59.8516 8.10059q-31.501 0 -58.501 -7.65039 q-27.001 -7.65039 -48.1514 -22.5q-21.1504 -14.8506 -33.751 -37.3516t-14.4004 -51.3018h-94.5029q1.7998 46.8018 22.0508 83.7031q20.251 36.9004 54.002 62.1016q33.751 25.2002 77.8516 38.7012q44.1016 13.5 93.6025 13.5q51.3018 0 96.3027 -12.6006 t78.752 -37.8008t53.1016 -62.5518q19.3506 -37.3506 19.3506 -86.8525q-0.900391 -58.501 -38.7012 -98.1025q-37.8008 -39.6006 -96.3027 -59.4014q67.502 -17.1006 108.453 -58.0518t40.9512 -111.153q0 -50.4014 -21.1504 -88.2021t-56.7021 -63.4512 q-35.5508 -25.6514 -82.8018 -38.7012q-47.251 -13.0508 -98.5527 -13.0508q-49.501 0 -95.8525 12.6006t-82.8027 38.251q-36.4502 25.6504 -59.4014 64.3516q-22.9502 38.7012 -24.751 91.8027h95.4033q1.7998 -31.501 15.75 -55.3516t36.9014 -40.0508 q22.9502 -16.2012 53.1016 -24.751q30.1504 -8.5498 64.3516 -8.5498q33.3008 0 62.5518 8.09961q29.251 8.10059 51.3008 24.3008q22.0508 16.2002 34.6514 40.0508t12.6006 55.3516q0 36.9014 -15.3008 61.6523q-15.2998 24.75 -40.501 39.1504t-57.6016 20.7012 q-32.4004 6.2998 -66.6016 6.2998h-70.2021v73.8018z" />
<glyph unicode="&#xbf;" d="M695 684q-1 -60 -6 -102.5t-20 -77.5t-41 -67t-69 -72q-39 -40 -76.5 -81.5t-66.5 -87.5t-46.5 -97t-17.5 -111q0 -62 17.5 -111.5t51.5 -84t82.5 -53.5t110.5 -19q56 0 103.5 17.5t82 50.5t55 80t22.5 106h119q-2 -81 -30.5 -147.5t-78.5 -113.5t-119.5 -73t-153.5 -26 q-89 0 -159.5 27t-120 75.5t-76 117t-26.5 152.5q0 72 21.5 136t57.5 120.5t82 106.5t94 94q30 28 48 54.5t27 54.5t11.5 60t2.5 72h119zM544 1018q0 34 23.5 58.5t62.5 24.5t62 -24.5t23 -58.5t-23 -58t-62 -24t-62.5 24t-23.5 58z" />
<glyph unicode="&#xc0;" d="M905 406h-554l-129 -406h-121l474 1456h108l470 -1456h-120zM385 513h486l-242 766zM691 1565h-104l-218 266h144z" />
<glyph unicode="&#xc1;" d="M905 406h-554l-129 -406h-121l474 1456h108l470 -1456h-120zM385 513h486l-242 766zM752 1829h145l-230 -266h-99z" />
<glyph unicode="&#xc2;" d="M905 406h-554l-129 -406h-121l474 1456h108l470 -1456h-120zM385 513h486l-242 766zM909 1608v-17h-111l-169 174l-167 -174h-108v20l238 239h76z" />
<glyph unicode="&#xc3;" d="M905 406h-554l-129 -406h-121l474 1456h108l470 -1456h-120zM385 513h486l-242 766zM955 1824q-2 -41 -15.5 -78t-38 -65t-58.5 -44.5t-77 -16.5q-47 0 -80.5 17t-63.5 38t-61 38t-72 17q-51 -1 -79 -35t-31 -84l-79 13q1 40 14.5 77t38 65t59 44.5t77.5 16.5 q42 0 75.5 -17.5t65 -38t64 -37.5t72.5 -17q25 0 45 10t34 26.5t21.5 38.5t9.5 47z" />
<glyph unicode="&#xc4;" d="M905 406h-554l-129 -406h-121l474 1456h108l470 -1456h-120zM385 513h486l-242 766zM322 1729q0 33 22 57t60 24t60.5 -24t22.5 -57q0 -32 -22.5 -55.5t-60.5 -23.5t-60 23.5t-22 55.5zM760 1728q0 33 22 57t60 24t60.5 -24t22.5 -57q0 -32 -22.5 -55.5t-60.5 -23.5 t-60 23.5t-22 55.5z" />
<glyph unicode="&#xc5;" d="M905 406h-554l-129 -406h-121l474 1456h108l470 -1456h-120zM385 513h486l-242 766zM444 1717q0 38 14.5 72t39 59.5t58 40t72.5 14.5q38 0 71.5 -14.5t58 -40t39 -59.5t14.5 -72q0 -39 -14.5 -72t-39 -57.5t-58 -38.5t-71.5 -14q-39 0 -72.5 14t-58 38.5t-39 57.5 t-14.5 72zM520 1717q0 -23 8.5 -43t23 -35t34 -24t42.5 -9t42.5 9t33.5 24t22 35t8 43t-8 44t-22 36.5t-33.5 24.5t-42.5 9t-43 -9t-34.5 -24.5t-22.5 -36.5t-8 -44z" />
<glyph unicode="&#xc6;" d="M1171 0h-503l-6 389h-342l-140 -389h-125l552 1456h534v-102h-382l8 -545h332v-102h-330l8 -606h394v-101zM361 502h300l-11 798z" />
<glyph unicode="&#xc7;" d="M1099 442q-12 -98 -49 -182.5t-98 -147t-144.5 -97.5t-187.5 -35q-87 0 -157.5 26.5t-125 72.5t-94.5 108t-66 133.5t-38.5 148.5t-13.5 153v211q1 76 13.5 153t38.5 148.5t66 133.5t94.5 108.5t125 73t157.5 26.5q106 0 189.5 -35t144.5 -97.5t97.5 -147.5t47.5 -185 h-119q-12 75 -38.5 141t-70.5 115.5t-106 78t-145 28.5q-71 0 -126 -24t-96.5 -64t-70.5 -93.5t-47 -113.5t-26.5 -122.5t-8.5 -121.5v-213q0 -59 8.5 -122t26.5 -123t47 -113.5t70.5 -94t96.5 -64.5t126 -24q84 0 146.5 27.5t106 76.5t70 115t37.5 142h119zM661 -4l-12 -64 q33 -5 62.5 -17t52.5 -32t36.5 -50t13.5 -72q0 -52 -24 -89t-64.5 -61.5t-94 -36.5t-111.5 -13l-7 78q33 0 69 6t65 19.5t48.5 36.5t19.5 58q0 32 -14 52t-38.5 31.5t-56.5 17t-66 9.5l28 127h93z" />
<glyph unicode="&#xc8;" d="M962 698h-642v-594h740v-104h-859v1456h855v-105h-736v-549h642v-104zM635 1565h-104l-218 266h144z" />
<glyph unicode="&#xc9;" d="M962 698h-642v-594h740v-104h-859v1456h855v-105h-736v-549h642v-104zM696 1829h145l-230 -266h-99z" />
<glyph unicode="&#xca;" d="M962 698h-642v-594h740v-104h-859v1456h855v-105h-736v-549h642v-104zM853 1608v-17h-111l-169 174l-167 -174h-108v20l238 239h76z" />
<glyph unicode="&#xcb;" d="M962 698h-642v-594h740v-104h-859v1456h855v-105h-736v-549h642v-104zM267 1729q0 33 22 57t60 24t60.5 -24t22.5 -57q0 -32 -22.5 -55.5t-60.5 -23.5t-60 23.5t-22 55.5zM705 1728q0 33 22 57t60 24t60.5 -24t22.5 -57q0 -32 -22.5 -55.5t-60.5 -23.5t-60 23.5t-22 55.5 z" />
<glyph unicode="&#xcc;" d="M193 1456h843v-108h-365v-1242h365v-106h-843v106h354v1242h-354v108zM662 1565h-104l-218 266h144z" />
<glyph unicode="&#xcd;" d="M193 1456h843v-108h-365v-1242h365v-106h-843v106h354v1242h-354v108zM723 1829h145l-230 -266h-99z" />
<glyph unicode="&#xce;" d="M193 1456h843v-108h-365v-1242h365v-106h-843v106h354v1242h-354v108zM880 1608v-17h-111l-169 174l-167 -174h-108v20l238 239h76z" />
<glyph unicode="&#xcf;" d="M193 1456h843v-108h-365v-1242h365v-106h-843v106h354v1242h-354v108zM294 1729q0 33 22 57t60 24t60.5 -24t22.5 -57q0 -32 -22.5 -55.5t-60.5 -23.5t-60 23.5t-22 55.5zM732 1728q0 33 22 57t60 24t60.5 -24t22.5 -57q0 -32 -22.5 -55.5t-60.5 -23.5t-60 23.5t-22 55.5 z" />
<glyph unicode="&#xd0;" horiz-adv-x="1259" d="M207 0v689h-252v102h252v665h352q140 -2 250 -55t186 -142t116 -207.5t42 -252.5v-143q-2 -134 -42 -252.5t-116 -207.5t-186 -141.5t-250 -54.5h-352zM567 689h-240v-588h232q117 2 205.5 48t147.5 122.5t89.5 176t31.5 208.5v146q-1 108 -31.5 207t-89.5 175 t-147.5 122t-205.5 48h-232v-563h240v-102z" />
<glyph unicode="&#xd1;" d="M1068 0h-119l-668 1229l-1 -1229h-119v1456h119l668 -1227l1 1227h119v-1456zM937 1824q-2 -41 -15.5 -78t-38 -65t-58.5 -44.5t-77 -16.5q-47 0 -80.5 17t-63.5 38t-61 38t-72 17q-51 -1 -79 -35t-31 -84l-79 13q1 40 14.5 77t38 65t59 44.5t77.5 16.5q42 0 75.5 -17.5 t65 -38t64 -37.5t72.5 -17q25 0 45 10t34 26.5t21.5 38.5t9.5 47z" />
<glyph unicode="&#xd2;" d="M1103 631q-1 -74 -13 -151.5t-37.5 -150t-64.5 -136t-92.5 -111t-123.5 -75t-157 -27.5q-86 0 -156 27.5t-124.5 75t-94 111.5t-65 136.5t-38 149.5t-13.5 151v192q1 74 13.5 151.5t37.5 150t64.5 136.5t93.5 112t123.5 75.5t156.5 27.5t157 -27.5t124.5 -75t93.5 -111.5 t64.5 -136.5t37.5 -150t13 -152.5v-192zM985 825q-1 58 -9 121t-26 123t-46.5 114.5t-69.5 95.5t-96 65t-125 24t-124.5 -24.5t-95.5 -65.5t-69.5 -95.5t-46.5 -114.5t-26 -123t-9 -120v-194q1 -58 9.5 -120.5t26.5 -123t46.5 -115t69.5 -95.5t96 -65.5t125 -24.5 q71 0 125.5 24.5t95.5 65.5t69.5 95.5t46 115t25 123t8.5 120.5v194zM689 1586h-104l-218 266h144z" />
<glyph unicode="&#xd3;" d="M1103 631q-1 -74 -13 -151.5t-37.5 -150t-64.5 -136t-92.5 -111t-123.5 -75t-157 -27.5q-86 0 -156 27.5t-124.5 75t-94 111.5t-65 136.5t-38 149.5t-13.5 151v192q1 74 13.5 151.5t37.5 150t64.5 136.5t93.5 112t123.5 75.5t156.5 27.5t157 -27.5t124.5 -75t93.5 -111.5 t64.5 -136.5t37.5 -150t13 -152.5v-192zM985 825q-1 58 -9 121t-26 123t-46.5 114.5t-69.5 95.5t-96 65t-125 24t-124.5 -24.5t-95.5 -65.5t-69.5 -95.5t-46.5 -114.5t-26 -123t-9 -120v-194q1 -58 9.5 -120.5t26.5 -123t46.5 -115t69.5 -95.5t96 -65.5t125 -24.5 q71 0 125.5 24.5t95.5 65.5t69.5 95.5t46 115t25 123t8.5 120.5v194zM750 1850h145l-230 -266h-99z" />
<glyph unicode="&#xd4;" d="M1103 631q-1 -74 -13 -151.5t-37.5 -150t-64.5 -136t-92.5 -111t-123.5 -75t-157 -27.5q-86 0 -156 27.5t-124.5 75t-94 111.5t-65 136.5t-38 149.5t-13.5 151v192q1 74 13.5 151.5t37.5 150t64.5 136.5t93.5 112t123.5 75.5t156.5 27.5t157 -27.5t124.5 -75t93.5 -111.5 t64.5 -136.5t37.5 -150t13 -152.5v-192zM985 825q-1 58 -9 121t-26 123t-46.5 114.5t-69.5 95.5t-96 65t-125 24t-124.5 -24.5t-95.5 -65.5t-69.5 -95.5t-46.5 -114.5t-26 -123t-9 -120v-194q1 -58 9.5 -120.5t26.5 -123t46.5 -115t69.5 -95.5t96 -65.5t125 -24.5 q71 0 125.5 24.5t95.5 65.5t69.5 95.5t46 115t25 123t8.5 120.5v194zM907 1629v-17h-111l-169 174l-167 -174h-108v20l238 239h76z" />
<glyph unicode="&#xd5;" d="M1103 631q-1 -74 -13 -151.5t-37.5 -150t-64.5 -136t-92.5 -111t-123.5 -75t-157 -27.5q-86 0 -156 27.5t-124.5 75t-94 111.5t-65 136.5t-38 149.5t-13.5 151v192q1 74 13.5 151.5t37.5 150t64.5 136.5t93.5 112t123.5 75.5t156.5 27.5t157 -27.5t124.5 -75t93.5 -111.5 t64.5 -136.5t37.5 -150t13 -152.5v-192zM985 825q-1 58 -9 121t-26 123t-46.5 114.5t-69.5 95.5t-96 65t-125 24t-124.5 -24.5t-95.5 -65.5t-69.5 -95.5t-46.5 -114.5t-26 -123t-9 -120v-194q1 -58 9.5 -120.5t26.5 -123t46.5 -115t69.5 -95.5t96 -65.5t125 -24.5 q71 0 125.5 24.5t95.5 65.5t69.5 95.5t46 115t25 123t8.5 120.5v194zM953 1845q-2 -41 -15.5 -78t-38 -65t-58.5 -44.5t-77 -16.5q-47 0 -80.5 17t-63.5 38t-61 38t-72 17q-51 -1 -79 -35t-31 -84l-79 13q1 40 14.5 77t38 65t59 44.5t77.5 16.5q42 0 75.5 -17.5t65 -38 t64 -37.5t72.5 -17q25 0 45 10t34 26.5t21.5 38.5t9.5 47z" />
<glyph unicode="&#xd6;" d="M1103 631q-1 -74 -13 -151.5t-37.5 -150t-64.5 -136t-92.5 -111t-123.5 -75t-157 -27.5q-86 0 -156 27.5t-124.5 75t-94 111.5t-65 136.5t-38 149.5t-13.5 151v192q1 74 13.5 151.5t37.5 150t64.5 136.5t93.5 112t123.5 75.5t156.5 27.5t157 -27.5t124.5 -75t93.5 -111.5 t64.5 -136.5t37.5 -150t13 -152.5v-192zM985 825q-1 58 -9 121t-26 123t-46.5 114.5t-69.5 95.5t-96 65t-125 24t-124.5 -24.5t-95.5 -65.5t-69.5 -95.5t-46.5 -114.5t-26 -123t-9 -120v-194q1 -58 9.5 -120.5t26.5 -123t46.5 -115t69.5 -95.5t96 -65.5t125 -24.5 q71 0 125.5 24.5t95.5 65.5t69.5 95.5t46 115t25 123t8.5 120.5v194zM320 1750q0 33 22 57t60 24t60.5 -24t22.5 -57q0 -32 -22.5 -55.5t-60.5 -23.5t-60 23.5t-22 55.5zM758 1749q0 33 22 57t60 24t60.5 -24t22.5 -57q0 -32 -22.5 -55.5t-60.5 -23.5t-60 23.5t-22 55.5z " />
<glyph unicode="&#xd7;" d="M196 179l358 365l-343 350l79 80l342 -350l343 350l79 -80l-343 -350l359 -365l-79 -79l-359 364l-357 -364z" />
<glyph unicode="&#xd8;" d="M1093 631q-1 -74 -13 -151.5t-37.5 -150t-64.5 -136t-92.5 -111t-123.5 -75t-157 -27.5q-91 0 -162.5 29.5t-126.5 80.5l-103 -174h-103l144 244q-36 48 -62 105t-43.5 118t-26 124t-8.5 124v192q1 74 13.5 151.5t37.5 150t64.5 136.5t93.5 112t123.5 75.5t156.5 27.5 q110 0 192 -43t141 -114l110 186h103l-158 -267q52 -93 76 -201t26 -214v-192zM232 631q0 -44 5 -91t15.5 -94t26 -92.5t38.5 -85.5l558 947q-44 68 -110.5 110.5t-161.5 42.5q-70 0 -124.5 -24.5t-95.5 -65.5t-69.5 -95.5t-46.5 -114.5t-26 -123t-9 -120v-194zM975 825 q-1 71 -13 147.5t-40 148.5l-549 -933q42 -46 99.5 -73.5t132.5 -27.5q71 0 125.5 24.5t95.5 65.5t69.5 95.5t46 115t25 123t8.5 120.5v194z" />
<glyph unicode="&#xd9;" d="M1071 1456l1 -987q-2 -99 -34.5 -188t-91.5 -155.5t-143 -106t-188 -39.5q-105 0 -189 39t-143 106t-92 156t-34 188l2 987h113l3 -987q1 -75 24 -144.5t66 -123t106 -85.5t144 -32t143.5 32t105 85.5t65 123t24.5 144.5l2 987h116zM698 1559h-104l-218 266h144z" />
<glyph unicode="&#xda;" d="M1071 1456l1 -987q-2 -99 -34.5 -188t-91.5 -155.5t-143 -106t-188 -39.5q-105 0 -189 39t-143 106t-92 156t-34 188l2 987h113l3 -987q1 -75 24 -144.5t66 -123t106 -85.5t144 -32t143.5 32t105 85.5t65 123t24.5 144.5l2 987h116zM759 1823h145l-230 -266h-99z" />
<glyph unicode="&#xdb;" d="M1071 1456l1 -987q-2 -99 -34.5 -188t-91.5 -155.5t-143 -106t-188 -39.5q-105 0 -189 39t-143 106t-92 156t-34 188l2 987h113l3 -987q1 -75 24 -144.5t66 -123t106 -85.5t144 -32t143.5 32t105 85.5t65 123t24.5 144.5l2 987h116zM916 1602v-17h-111l-169 174 l-167 -174h-108v20l238 239h76z" />
<glyph unicode="&#xdc;" d="M1071 1456l1 -987q-2 -99 -34.5 -188t-91.5 -155.5t-143 -106t-188 -39.5q-105 0 -189 39t-143 106t-92 156t-34 188l2 987h113l3 -987q1 -75 24 -144.5t66 -123t106 -85.5t144 -32t143.5 32t105 85.5t65 123t24.5 144.5l2 987h116zM329 1723q0 33 22 57t60 24t60.5 -24 t22.5 -57q0 -32 -22.5 -55.5t-60.5 -23.5t-60 23.5t-22 55.5zM767 1722q0 33 22 57t60 24t60.5 -24t22.5 -57q0 -32 -22.5 -55.5t-60.5 -23.5t-60 23.5t-22 55.5z" />
<glyph unicode="&#xdd;" d="M600 662l389 794h136l-467 -908l-2 -548h-112l-2 548l-467 908h139zM724 1822h145l-230 -266h-99z" />
<glyph unicode="&#xde;" d="M310 1456v-304h324q104 0 190 -29.5t148 -83t96.5 -130t34.5 -171.5t-34.5 -171.5t-96.5 -130t-148 -83t-190 -29.5h-324v-324h-119v1456h119zM310 1051v-626h324q78 1 142 24t110.5 64t72 97.5t25.5 125.5t-25 127t-71 99.5t-110.5 64.5t-143.5 24h-324z" />
<glyph unicode="&#xdf;" d="M312 0h-119v1116q0 93 24 171.5t69.5 136t113 90t155.5 32.5q69 0 130 -21t106.5 -60t72.5 -96t27 -130q0 -68 -18.5 -121t-41 -99.5t-41.5 -92.5t-18 -100q0 -49 23.5 -88.5t58 -75.5t74.5 -71.5t74 -77.5t57 -93.5t23 -118.5q0 -77 -26.5 -136.5t-73 -101t-108.5 -63 t-133 -21.5q-39 0 -81.5 5t-83 15.5t-76 25t-60.5 34.5l33 101q23 -16 53 -30.5t63.5 -25.5t68.5 -17.5t70 -6.5q52 0 95.5 16t74.5 45t48 69.5t17 90.5q0 54 -23 96t-57.5 79t-74.5 72.5t-74.5 76.5t-58 90t-23.5 113q0 58 19 107t42 96t42 95.5t19 105.5q0 47 -17.5 86 t-46.5 67t-67 43.5t-78 15.5q-65 1 -112 -23.5t-78 -68.5t-46.5 -104.5t-16.5 -131.5v-1116z" />
<glyph unicode="&#xe0;" d="M937 0q-11 33 -17 73.5t-8 82.5q-31 -38 -72 -70t-89.5 -55.5t-104.5 -37t-117 -13.5q-76 0 -141.5 22t-114 62t-76 96.5t-27.5 126.5q0 93 41 158t111 105.5t162 59.5t193 19h234v123q-1 61 -24 107.5t-62.5 78t-94 47.5t-118.5 16q-58 0 -110.5 -15t-93 -43 t-65.5 -68.5t-27 -91.5l-120 1q3 69 36.5 127t90.5 100.5t132.5 66.5t161.5 24t161.5 -22t131 -66t88 -110t33.5 -154v-524q0 -54 9.5 -109t23.5 -105l1 -12h-128zM542 86q63 -1 120.5 15t105.5 44.5t85 68t58 86.5v237h-218q-79 0 -152 -12t-129 -39.5t-89.5 -73.5 t-33.5 -115q0 -49 20 -88t54 -66.5t80 -42t99 -14.5zM696 1244h-104l-218 266h144z" />
<glyph unicode="&#xe1;" d="M937 0q-11 33 -17 73.5t-8 82.5q-31 -38 -72 -70t-89.5 -55.5t-104.5 -37t-117 -13.5q-76 0 -141.5 22t-114 62t-76 96.5t-27.5 126.5q0 93 41 158t111 105.5t162 59.5t193 19h234v123q-1 61 -24 107.5t-62.5 78t-94 47.5t-118.5 16q-58 0 -110.5 -15t-93 -43 t-65.5 -68.5t-27 -91.5l-120 1q3 69 36.5 127t90.5 100.5t132.5 66.5t161.5 24t161.5 -22t131 -66t88 -110t33.5 -154v-524q0 -54 9.5 -109t23.5 -105l1 -12h-128zM542 86q63 -1 120.5 15t105.5 44.5t85 68t58 86.5v237h-218q-79 0 -152 -12t-129 -39.5t-89.5 -73.5 t-33.5 -115q0 -49 20 -88t54 -66.5t80 -42t99 -14.5zM757 1508h145l-230 -266h-99z" />
<glyph unicode="&#xe2;" d="M937 0q-11 33 -17 73.5t-8 82.5q-31 -38 -72 -70t-89.5 -55.5t-104.5 -37t-117 -13.5q-76 0 -141.5 22t-114 62t-76 96.5t-27.5 126.5q0 93 41 158t111 105.5t162 59.5t193 19h234v123q-1 61 -24 107.5t-62.5 78t-94 47.5t-118.5 16q-58 0 -110.5 -15t-93 -43 t-65.5 -68.5t-27 -91.5l-120 1q3 69 36.5 127t90.5 100.5t132.5 66.5t161.5 24t161.5 -22t131 -66t88 -110t33.5 -154v-524q0 -54 9.5 -109t23.5 -105l1 -12h-128zM542 86q63 -1 120.5 15t105.5 44.5t85 68t58 86.5v237h-218q-79 0 -152 -12t-129 -39.5t-89.5 -73.5 t-33.5 -115q0 -49 20 -88t54 -66.5t80 -42t99 -14.5zM914 1287v-17h-111l-169 174l-167 -174h-108v20l238 239h76z" />
<glyph unicode="&#xe3;" d="M937 0q-11 33 -17 73.5t-8 82.5q-31 -38 -72 -70t-89.5 -55.5t-104.5 -37t-117 -13.5q-76 0 -141.5 22t-114 62t-76 96.5t-27.5 126.5q0 93 41 158t111 105.5t162 59.5t193 19h234v123q-1 61 -24 107.5t-62.5 78t-94 47.5t-118.5 16q-58 0 -110.5 -15t-93 -43 t-65.5 -68.5t-27 -91.5l-120 1q3 69 36.5 127t90.5 100.5t132.5 66.5t161.5 24t161.5 -22t131 -66t88 -110t33.5 -154v-524q0 -54 9.5 -109t23.5 -105l1 -12h-128zM542 86q63 -1 120.5 15t105.5 44.5t85 68t58 86.5v237h-218q-79 0 -152 -12t-129 -39.5t-89.5 -73.5 t-33.5 -115q0 -49 20 -88t54 -66.5t80 -42t99 -14.5zM960 1503q-2 -41 -15.5 -78t-38 -65t-58.5 -44.5t-77 -16.5q-47 0 -80.5 17t-63.5 38t-61 38t-72 17q-51 -1 -79 -35t-31 -84l-79 13q1 40 14.5 77t38 65t59 44.5t77.5 16.5q42 0 75.5 -17.5t65 -38t64 -37.5t72.5 -17 q25 0 45 10t34 26.5t21.5 38.5t9.5 47z" />
<glyph unicode="&#xe4;" d="M937 0q-11 33 -17 73.5t-8 82.5q-31 -38 -72 -70t-89.5 -55.5t-104.5 -37t-117 -13.5q-76 0 -141.5 22t-114 62t-76 96.5t-27.5 126.5q0 93 41 158t111 105.5t162 59.5t193 19h234v123q-1 61 -24 107.5t-62.5 78t-94 47.5t-118.5 16q-58 0 -110.5 -15t-93 -43 t-65.5 -68.5t-27 -91.5l-120 1q3 69 36.5 127t90.5 100.5t132.5 66.5t161.5 24t161.5 -22t131 -66t88 -110t33.5 -154v-524q0 -54 9.5 -109t23.5 -105l1 -12h-128zM542 86q63 -1 120.5 15t105.5 44.5t85 68t58 86.5v237h-218q-79 0 -152 -12t-129 -39.5t-89.5 -73.5 t-33.5 -115q0 -49 20 -88t54 -66.5t80 -42t99 -14.5zM327 1408q0 33 22 57t60 24t60.5 -24t22.5 -57q0 -32 -22.5 -55.5t-60.5 -23.5t-60 23.5t-22 55.5zM765 1407q0 33 22 57t60 24t60.5 -24t22.5 -57q0 -32 -22.5 -55.5t-60.5 -23.5t-60 23.5t-22 55.5z" />
<glyph unicode="&#xe5;" d="M937 0q-11 33 -17 73.5t-8 82.5q-31 -38 -72 -70t-89.5 -55.5t-104.5 -37t-117 -13.5q-76 0 -141.5 22t-114 62t-76 96.5t-27.5 126.5q0 93 41 158t111 105.5t162 59.5t193 19h234v123q-1 61 -24 107.5t-62.5 78t-94 47.5t-118.5 16q-58 0 -110.5 -15t-93 -43 t-65.5 -68.5t-27 -91.5l-120 1q3 69 36.5 127t90.5 100.5t132.5 66.5t161.5 24t161.5 -22t131 -66t88 -110t33.5 -154v-524q0 -54 9.5 -109t23.5 -105l1 -12h-128zM542 86q63 -1 120.5 15t105.5 44.5t85 68t58 86.5v237h-218q-79 0 -152 -12t-129 -39.5t-89.5 -73.5 t-33.5 -115q0 -49 20 -88t54 -66.5t80 -42t99 -14.5zM449 1396q0 38 14.5 72t39 59.5t58 40t72.5 14.5q38 0 71.5 -14.5t58 -40t39 -59.5t14.5 -72q0 -39 -14.5 -72t-39 -57.5t-58 -38.5t-71.5 -14q-39 0 -72.5 14t-58 38.5t-39 57.5t-14.5 72zM525 1396q0 -23 8.5 -43 t23 -35t34 -24t42.5 -9t42.5 9t33.5 24t22 35t8 43t-8 44t-22 36.5t-33.5 24.5t-42.5 9t-43 -9t-34.5 -24.5t-22.5 -36.5t-8 -44z" />
<glyph unicode="&#xe6;" d="M894 -20q-110 1 -181.5 48.5t-111.5 124.5q-19 -35 -46.5 -66.5t-62.5 -55t-77.5 -37.5t-91.5 -14q-68 0 -119 23.5t-86 64.5t-53 96.5t-18 119.5q0 77 23.5 141t69.5 110t112.5 71.5t153.5 25.5h131v170q0 37 -7.5 72.5t-26 63t-51.5 45t-85 17.5q-44 0 -79 -14t-59 -39 t-36.5 -59.5t-11.5 -75.5l-116 4q-1 65 20.5 117.5t61.5 90t95.5 58t123.5 20.5q101 0 163 -40t92 -105q39 64 101 104.5t150 40.5q84 0 143 -31.5t96.5 -84t55 -120.5t17.5 -141l-1 -187h-530v-133q0 -59 12 -116.5t41.5 -104t79.5 -75t126 -28.5q39 0 71.5 9t59 23 t47.5 32t39 36l37 -87q-18 -22 -43.5 -42.5t-59 -36.5t-75.5 -25.5t-94 -9.5zM341 80q30 0 59.5 10t55.5 27t47 39t36 46l-1 334h-130q-58 -1 -103.5 -21.5t-76.5 -55.5t-47 -81t-16 -98q0 -40 11 -76t32.5 -64t54.5 -44t78 -16zM653 636h418l-1 109q-2 43 -12 88t-33 82 t-60.5 61t-92.5 24q-65 0 -107 -32t-66.5 -80.5t-35 -107t-10.5 -110.5v-34z" />
<glyph unicode="&#xe7;" d="M632 81q60 0 114.5 17.5t96.5 50.5t68.5 79.5t30.5 105.5h115q-4 -77 -40 -142t-94 -112t-133 -73.5t-158 -26.5q-119 0 -207 45t-146.5 120t-88 172.5t-29.5 202.5v42q0 105 29.5 202.5t88 172.5t146.5 120t206 45q90 0 166.5 -28.5t133 -80t89.5 -122t37 -154.5h-115 q-3 61 -28 113t-66 90t-96.5 59t-120.5 21q-94 0 -160.5 -38t-108.5 -100t-61.5 -140.5t-19.5 -159.5v-42q0 -82 19.5 -161t61.5 -140.5t108.5 -99.5t161.5 -38zM679 -4l-12 -64q33 -5 62.5 -17t52.5 -32t36.5 -50t13.5 -72q0 -52 -24 -89t-64.5 -61.5t-94 -36.5t-111.5 -13 l-7 78q33 0 69 6t65 19.5t48.5 36.5t19.5 58q0 32 -14 52t-38.5 31.5t-56.5 17t-66 9.5l28 127h93z" />
<glyph unicode="&#xe8;" d="M655 -20q-113 0 -206 42t-159.5 114t-103 168.5t-37.5 205.5v43q1 116 38.5 216t102.5 174t153 116.5t189 42.5q108 0 191 -39t139.5 -106.5t86 -157.5t30.5 -193v-73h-810v-23q1 -85 29 -162.5t79 -136.5t123 -94.5t160 -35.5q100 -1 181 37t138 110l76 -57 q-30 -42 -71 -77.5t-91.5 -60.5t-110.5 -39t-127 -14zM632 1000q-73 0 -134 -27.5t-107 -76.5t-76 -115.5t-41 -145.5h685v13q-2 67 -24.5 130.5t-64 112.5t-101.5 79t-137 30zM687 1244h-104l-218 266h144z" />
<glyph unicode="&#xe9;" d="M655 -20q-113 0 -206 42t-159.5 114t-103 168.5t-37.5 205.5v43q1 116 38.5 216t102.5 174t153 116.5t189 42.5q108 0 191 -39t139.5 -106.5t86 -157.5t30.5 -193v-73h-810v-23q1 -85 29 -162.5t79 -136.5t123 -94.5t160 -35.5q100 -1 181 37t138 110l76 -57 q-30 -42 -71 -77.5t-91.5 -60.5t-110.5 -39t-127 -14zM632 1000q-73 0 -134 -27.5t-107 -76.5t-76 -115.5t-41 -145.5h685v13q-2 67 -24.5 130.5t-64 112.5t-101.5 79t-137 30zM748 1508h145l-230 -266h-99z" />
<glyph unicode="&#xea;" d="M655 -20q-113 0 -206 42t-159.5 114t-103 168.5t-37.5 205.5v43q1 116 38.5 216t102.5 174t153 116.5t189 42.5q108 0 191 -39t139.5 -106.5t86 -157.5t30.5 -193v-73h-810v-23q1 -85 29 -162.5t79 -136.5t123 -94.5t160 -35.5q100 -1 181 37t138 110l76 -57 q-30 -42 -71 -77.5t-91.5 -60.5t-110.5 -39t-127 -14zM632 1000q-73 0 -134 -27.5t-107 -76.5t-76 -115.5t-41 -145.5h685v13q-2 67 -24.5 130.5t-64 112.5t-101.5 79t-137 30zM905 1287v-17h-111l-169 174l-167 -174h-108v20l238 239h76z" />
<glyph unicode="&#xeb;" d="M655 -20q-113 0 -206 42t-159.5 114t-103 168.5t-37.5 205.5v43q1 116 38.5 216t102.5 174t153 116.5t189 42.5q108 0 191 -39t139.5 -106.5t86 -157.5t30.5 -193v-73h-810v-23q1 -85 29 -162.5t79 -136.5t123 -94.5t160 -35.5q100 -1 181 37t138 110l76 -57 q-30 -42 -71 -77.5t-91.5 -60.5t-110.5 -39t-127 -14zM632 1000q-73 0 -134 -27.5t-107 -76.5t-76 -115.5t-41 -145.5h685v13q-2 67 -24.5 130.5t-64 112.5t-101.5 79t-137 30zM318 1408q0 33 22 57t60 24t60.5 -24t22.5 -57q0 -32 -22.5 -55.5t-60.5 -23.5t-60 23.5 t-22 55.5zM756 1407q0 33 22 57t60 24t60.5 -24t22.5 -57q0 -32 -22.5 -55.5t-60.5 -23.5t-60 23.5t-22 55.5z" />
<glyph unicode="&#xec;" d="M221 1082h502v-976h368v-106h-870v106h382v869h-382v107zM725 1254h-104l-218 266h144z" />
<glyph unicode="&#xed;" d="M221 1082h502v-976h368v-106h-870v106h382v869h-382v107zM786 1518h145l-230 -266h-99z" />
<glyph unicode="&#xee;" d="M221 1082h502v-976h368v-106h-870v106h382v869h-382v107zM943 1297v-17h-111l-169 174l-167 -174h-108v20l238 239h76z" />
<glyph unicode="&#xef;" d="M221 1082h502v-976h368v-106h-870v106h382v869h-382v107zM356 1418q0 33 22 57t60 24t60.5 -24t22.5 -57q0 -32 -22.5 -55.5t-60.5 -23.5t-60 23.5t-22 55.5zM794 1417q0 33 22 57t60 24t60.5 -24t22.5 -57q0 -32 -22.5 -55.5t-60.5 -23.5t-60 23.5t-22 55.5z" />
<glyph unicode="&#xf0;" d="M796 1293q115 -124 178 -290.5t64 -379.5v-71q0 -117 -33 -220.5t-95.5 -181.5t-153 -124t-205.5 -46q-101 0 -186 37.5t-147 103.5t-97 155t-35 190q0 109 34 200.5t96.5 158t151 103.5t197.5 37q100 0 188 -39.5t148 -108.5q-23 132 -77 235t-134 183l-251 -139l-51 74 l231 127q-60 48 -130 84.5t-148 64.5l39 104q203 -67 349 -192l226 125l52 -73zM918 625q0 15 -0.5 30t-1.5 29q-20 40 -55.5 72.5t-81.5 56t-101 36t-113 12.5q-85 0 -151.5 -31t-112.5 -84.5t-70 -125.5t-24 -154q0 -77 25.5 -146.5t71 -122t109.5 -83.5t142 -31 q91 0 159 39t113 104t68 149.5t23 176.5v73z" />
<glyph unicode="&#xf1;" d="M303 1082l9 -203q57 101 152 161.5t216 61.5q178 0 272 -106.5t95 -302.5v-693h-120v691q-1 149 -68 228.5t-208 78.5q-58 0 -110.5 -19t-96 -52t-77 -78t-54.5 -98v-751h-120v1082h110zM932 1502q-2 -41 -15.5 -78t-38 -65t-58.5 -44.5t-77 -16.5q-47 0 -80.5 17 t-63.5 38t-61 38t-72 17q-51 -1 -79 -35t-31 -84l-79 13q1 40 14.5 77t38 65t59 44.5t77.5 16.5q42 0 75.5 -17.5t65 -38t64 -37.5t72.5 -17q25 0 45 10t34 26.5t21.5 38.5t9.5 47z" />
<glyph unicode="&#xf2;" d="M131 557q1 110 34 209t94.5 173.5t151 118.5t202.5 44q114 0 203.5 -44t151.5 -118.5t95 -173.5t34 -209v-33q-1 -110 -33.5 -209t-94.5 -173.5t-151 -118t-203 -43.5t-203.5 43.5t-151.5 118t-95 173.5t-34 209v33zM251 524q0 -86 24 -166t70 -141.5t113.5 -98.5 t156.5 -37q88 0 155.5 37t113 98.5t69.5 141.5t24 166v33q0 85 -24 165t-70 141.5t-114 99t-156 37.5t-155.5 -37.5t-113 -99t-69.5 -141.5t-24 -165v-33zM677 1243h-104l-218 266h144z" />
<glyph unicode="&#xf3;" d="M131 557q1 110 34 209t94.5 173.5t151 118.5t202.5 44q114 0 203.5 -44t151.5 -118.5t95 -173.5t34 -209v-33q-1 -110 -33.5 -209t-94.5 -173.5t-151 -118t-203 -43.5t-203.5 43.5t-151.5 118t-95 173.5t-34 209v33zM251 524q0 -86 24 -166t70 -141.5t113.5 -98.5 t156.5 -37q88 0 155.5 37t113 98.5t69.5 141.5t24 166v33q0 85 -24 165t-70 141.5t-114 99t-156 37.5t-155.5 -37.5t-113 -99t-69.5 -141.5t-24 -165v-33zM738 1507h145l-230 -266h-99z" />
<glyph unicode="&#xf4;" d="M131 557q1 110 34 209t94.5 173.5t151 118.5t202.5 44q114 0 203.5 -44t151.5 -118.5t95 -173.5t34 -209v-33q-1 -110 -33.5 -209t-94.5 -173.5t-151 -118t-203 -43.5t-203.5 43.5t-151.5 118t-95 173.5t-34 209v33zM251 524q0 -86 24 -166t70 -141.5t113.5 -98.5 t156.5 -37q88 0 155.5 37t113 98.5t69.5 141.5t24 166v33q0 85 -24 165t-70 141.5t-114 99t-156 37.5t-155.5 -37.5t-113 -99t-69.5 -141.5t-24 -165v-33zM895 1286v-17h-111l-169 174l-167 -174h-108v20l238 239h76z" />
<glyph unicode="&#xf5;" d="M131 557q1 110 34 209t94.5 173.5t151 118.5t202.5 44q114 0 203.5 -44t151.5 -118.5t95 -173.5t34 -209v-33q-1 -110 -33.5 -209t-94.5 -173.5t-151 -118t-203 -43.5t-203.5 43.5t-151.5 118t-95 173.5t-34 209v33zM251 524q0 -86 24 -166t70 -141.5t113.5 -98.5 t156.5 -37q88 0 155.5 37t113 98.5t69.5 141.5t24 166v33q0 85 -24 165t-70 141.5t-114 99t-156 37.5t-155.5 -37.5t-113 -99t-69.5 -141.5t-24 -165v-33zM941 1502q-2 -41 -15.5 -78t-38 -65t-58.5 -44.5t-77 -16.5q-47 0 -80.5 17t-63.5 38t-61 38t-72 17q-51 -1 -79 -35 t-31 -84l-79 13q1 40 14.5 77t38 65t59 44.5t77.5 16.5q42 0 75.5 -17.5t65 -38t64 -37.5t72.5 -17q25 0 45 10t34 26.5t21.5 38.5t9.5 47z" />
<glyph unicode="&#xf6;" d="M131 557q1 110 34 209t94.5 173.5t151 118.5t202.5 44q114 0 203.5 -44t151.5 -118.5t95 -173.5t34 -209v-33q-1 -110 -33.5 -209t-94.5 -173.5t-151 -118t-203 -43.5t-203.5 43.5t-151.5 118t-95 173.5t-34 209v33zM251 524q0 -86 24 -166t70 -141.5t113.5 -98.5 t156.5 -37q88 0 155.5 37t113 98.5t69.5 141.5t24 166v33q0 85 -24 165t-70 141.5t-114 99t-156 37.5t-155.5 -37.5t-113 -99t-69.5 -141.5t-24 -165v-33zM309 1407q0 33 22 57t60 24t60.5 -24t22.5 -57q0 -32 -22.5 -55.5t-60.5 -23.5t-60 23.5t-22 55.5zM747 1406 q0 33 22 57t60 24t60.5 -24t22.5 -57q0 -32 -22.5 -55.5t-60.5 -23.5t-60 23.5t-22 55.5z" />
<glyph unicode="&#xf7;" d="M1113 644h-998v116h998v-116zM539 1087q0 33 22 57t60 24t60.5 -24t22.5 -57q0 -32 -22.5 -55.5t-60.5 -23.5t-60 23.5t-22 55.5zM538 292q0 32 22 56t60 24t60.5 -24t22.5 -56q0 -33 -22.5 -56.5t-60.5 -23.5t-60 23.5t-22 56.5z" />
<glyph unicode="&#xf8;" d="M131 557q1 110 34 209t94.5 173.5t151 118.5t202.5 44q54 0 102 -10.5t91 -29.5l74 152h93l-94 -192q52 -36 92.5 -86.5t68 -110.5t42 -128t15.5 -140v-33q-1 -110 -33.5 -209t-94.5 -173.5t-151 -118t-203 -43.5q-63 0 -118 13.5t-103 38.5l-84 -172h-93l107 218 q-47 37 -82.5 86t-60 106t-37.5 121.5t-13 132.5v33zM977 557q0 53 -10 105t-28.5 99t-46 88t-63.5 72l-388 -794q75 -46 174 -46q88 0 155.5 37t113 98.5t69.5 141.5t24 166v33zM251 524q0 -100 31.5 -190t91.5 -153l385 786q-32 16 -68.5 24.5t-77.5 8.5 q-88 0 -155.5 -37.5t-113 -99t-69.5 -141.5t-24 -165v-33z" />
<glyph unicode="&#xf9;" d="M919 169q-54 -89 -142.5 -139t-209.5 -50q-90 0 -158.5 29t-115 85t-71 137t-24.5 185v666h119v-668q2 -163 66 -247t198 -84q135 0 219 62t117 168l-1 769h121v-1082h-112zM660 1235h-104l-218 266h144z" />
<glyph unicode="&#xfa;" d="M919 169q-54 -89 -142.5 -139t-209.5 -50q-90 0 -158.5 29t-115 85t-71 137t-24.5 185v666h119v-668q2 -163 66 -247t198 -84q135 0 219 62t117 168l-1 769h121v-1082h-112zM721 1499h145l-230 -266h-99z" />
<glyph unicode="&#xfb;" d="M919 169q-54 -89 -142.5 -139t-209.5 -50q-90 0 -158.5 29t-115 85t-71 137t-24.5 185v666h119v-668q2 -163 66 -247t198 -84q135 0 219 62t117 168l-1 769h121v-1082h-112zM878 1278v-17h-111l-169 174l-167 -174h-108v20l238 239h76z" />
<glyph unicode="&#xfc;" d="M919 169q-54 -89 -142.5 -139t-209.5 -50q-90 0 -158.5 29t-115 85t-71 137t-24.5 185v666h119v-668q2 -163 66 -247t198 -84q135 0 219 62t117 168l-1 769h121v-1082h-112zM292 1399q0 33 22 57t60 24t60.5 -24t22.5 -57q0 -32 -22.5 -55.5t-60.5 -23.5t-60 23.5 t-22 55.5zM730 1398q0 33 22 57t60 24t60.5 -24t22.5 -57q0 -32 -22.5 -55.5t-60.5 -23.5t-60 23.5t-22 55.5z" />
<glyph unicode="&#xfd;" d="M600 220l22 -59l391 921h136l-559 -1255q-22 -49 -52 -96t-71 -84.5t-94.5 -60.5t-122.5 -23q-24 0 -53 4.5t-49 9.5l14 100q17 -2 42.5 -4.5t42.5 -2.5q46 0 84 18t67.5 46.5t52 64t37.5 69.5l74 160l-486 1054h135zM754 1499h145l-230 -266h-99z" />
<glyph unicode="&#xfe;" d="M1068 530q0 -105 -24.5 -204.5t-75.5 -176t-128.5 -123t-184.5 -46.5q-105 0 -192 40.5t-147 116.5v-553h-120v1962h120v-613q58 81 144 125t193 44q108 0 186.5 -45.5t129 -122t75 -176t24.5 -207.5v-21zM948 551q0 81 -17.5 161t-55.5 143.5t-99.5 103t-149.5 39.5 q-54 0 -101.5 -15t-87 -41.5t-70 -63.5t-51.5 -82v-531q44 -85 125.5 -134.5t186.5 -49.5q88 0 149 40t99 103.5t55 144t17 161.5v21z" />
<glyph unicode="&#xff;" d="M600 220l22 -59l391 921h136l-559 -1255q-22 -49 -52 -96t-71 -84.5t-94.5 -60.5t-122.5 -23q-24 0 -53 4.5t-49 9.5l14 100q17 -2 42.5 -4.5t42.5 -2.5q46 0 84 18t67.5 46.5t52 64t37.5 69.5l74 160l-486 1054h135zM324 1399q0 33 22 57t60 24t60.5 -24t22.5 -57 q0 -32 -22.5 -55.5t-60.5 -23.5t-60 23.5t-22 55.5zM762 1398q0 33 22 57t60 24t60.5 -24t22.5 -57q0 -32 -22.5 -55.5t-60.5 -23.5t-60 23.5t-22 55.5z" />
<glyph unicode="&#x100;" d="M905 406h-554l-129 -406h-121l474 1456h108l470 -1456h-120zM385 513h486l-242 766zM960 1689h-670v97h670v-97z" />
<glyph unicode="&#x101;" d="M937 0q-11 33 -17 73.5t-8 82.5q-31 -38 -72 -70t-89.5 -55.5t-104.5 -37t-117 -13.5q-76 0 -141.5 22t-114 62t-76 96.5t-27.5 126.5q0 93 41 158t111 105.5t162 59.5t193 19h234v123q-1 61 -24 107.5t-62.5 78t-94 47.5t-118.5 16q-58 0 -110.5 -15t-93 -43 t-65.5 -68.5t-27 -91.5l-120 1q3 69 36.5 127t90.5 100.5t132.5 66.5t161.5 24t161.5 -22t131 -66t88 -110t33.5 -154v-524q0 -54 9.5 -109t23.5 -105l1 -12h-128zM542 86q63 -1 120.5 15t105.5 44.5t85 68t58 86.5v237h-218q-79 0 -152 -12t-129 -39.5t-89.5 -73.5 t-33.5 -115q0 -49 20 -88t54 -66.5t80 -42t99 -14.5zM965 1368h-670v97h670v-97z" />
<glyph unicode="&#x102;" d="M905 406h-554l-129 -406h-121l474 1456h108l470 -1456h-120zM385 513h486l-242 766zM917 1837q-2 -59 -23.5 -106.5t-59.5 -81t-90 -51.5t-115 -18t-115.5 18t-91 51.5t-60 81t-23.5 106.5h102q3 -80 51.5 -125.5t136.5 -45.5q85 0 133.5 46t52.5 125h102z" />
<glyph unicode="&#x103;" d="M937 0q-11 33 -17 73.5t-8 82.5q-31 -38 -72 -70t-89.5 -55.5t-104.5 -37t-117 -13.5q-76 0 -141.5 22t-114 62t-76 96.5t-27.5 126.5q0 93 41 158t111 105.5t162 59.5t193 19h234v123q-1 61 -24 107.5t-62.5 78t-94 47.5t-118.5 16q-58 0 -110.5 -15t-93 -43 t-65.5 -68.5t-27 -91.5l-120 1q3 69 36.5 127t90.5 100.5t132.5 66.5t161.5 24t161.5 -22t131 -66t88 -110t33.5 -154v-524q0 -54 9.5 -109t23.5 -105l1 -12h-128zM542 86q63 -1 120.5 15t105.5 44.5t85 68t58 86.5v237h-218q-79 0 -152 -12t-129 -39.5t-89.5 -73.5 t-33.5 -115q0 -49 20 -88t54 -66.5t80 -42t99 -14.5zM922 1516q-2 -59 -23.5 -106.5t-59.5 -81t-90 -51.5t-115 -18t-115.5 18t-91 51.5t-60 81t-23.5 106.5h102q3 -80 51.5 -125.5t136.5 -45.5q85 0 133.5 46t52.5 125h102z" />
<glyph unicode="&#x104;" d="M683 1456l470 -1456h-24q-34 -21 -67.5 -46t-59.5 -54t-42.5 -62t-16.5 -70q1 -40 23.5 -62.5t65.5 -23.5q32 -1 60 9t49 24l23 -84q-29 -19 -66.5 -31.5t-88.5 -12.5q-37 0 -68.5 11t-55 33t-36.5 53t-13 72q0 38 15.5 74t42 69t61.5 62.5t73 53.5l-123 391h-554 l-129 -406h-121l474 1456h108zM385 513h486l-242 766z" />
<glyph unicode="&#x105;" d="M932 15q-8 32 -13 68t-7 73q-31 -38 -72 -70t-89.5 -55.5t-104.5 -37t-117 -13.5q-76 0 -141.5 22t-114 62t-76 96.5t-27.5 126.5q0 93 41 158t111 105.5t162 59.5t193 19h234v123q-1 61 -24 107.5t-62.5 78t-94 47.5t-118.5 16q-58 0 -110.5 -15t-93 -43t-65.5 -68.5 t-27 -91.5l-120 1q3 69 36.5 127t90.5 100.5t132.5 66.5t161.5 24t161.5 -22t131 -66t88 -110t33.5 -154v-524q0 -54 9.5 -109t23.5 -105l1 -12h-31q-34 -21 -67.5 -46t-59.5 -54t-42.5 -62t-16.5 -70q1 -40 23.5 -62.5t65.5 -23.5q32 -1 60 9t49 24l23 -84 q-29 -19 -66.5 -31.5t-88.5 -12.5q-37 0 -68.5 11t-55 33t-36.5 53t-13 72q0 38 15.5 74t42 69t61 62t72.5 54zM542 86q63 -1 120.5 15t105.5 44.5t85 68t58 86.5v237h-218q-79 0 -152 -12t-129 -39.5t-89.5 -73.5t-33.5 -115q0 -49 20 -88t54 -66.5t80 -42t99 -14.5z" />
<glyph unicode="&#x106;" d="M1099 442q-12 -98 -49 -182.5t-98 -147t-144.5 -97.5t-187.5 -35q-87 0 -157.5 26.5t-125 72.5t-94.5 108t-66 133.5t-38.5 148.5t-13.5 153v211q1 76 13.5 153t38.5 148.5t66 133.5t94.5 108.5t125 73t157.5 26.5q106 0 189.5 -35t144.5 -97.5t97.5 -147.5t47.5 -185 h-119q-12 75 -38.5 141t-70.5 115.5t-106 78t-145 28.5q-71 0 -126 -24t-96.5 -64t-70.5 -93.5t-47 -113.5t-26.5 -122.5t-8.5 -121.5v-213q0 -59 8.5 -122t26.5 -123t47 -113.5t70.5 -94t96.5 -64.5t126 -24q84 0 146.5 27.5t106 76.5t70 115t37.5 142h119zM764 1850h145 l-230 -266h-99z" />
<glyph unicode="&#x107;" d="M632 81q60 0 114.5 17.5t96.5 50.5t68.5 79.5t30.5 105.5h115q-4 -77 -40 -142t-94 -112t-133 -73.5t-158 -26.5q-119 0 -207 45t-146.5 120t-88 172.5t-29.5 202.5v42q0 105 29.5 202.5t88 172.5t146.5 120t206 45q90 0 166.5 -28.5t133 -80t89.5 -122t37 -154.5h-115 q-3 61 -28 113t-66 90t-96.5 59t-120.5 21q-94 0 -160.5 -38t-108.5 -100t-61.5 -140.5t-19.5 -159.5v-42q0 -82 19.5 -161t61.5 -140.5t108.5 -99.5t161.5 -38zM763 1507h145l-230 -266h-99z" />
<glyph unicode="&#x108;" d="M1099 442q-12 -98 -49 -182.5t-98 -147t-144.5 -97.5t-187.5 -35q-87 0 -157.5 26.5t-125 72.5t-94.5 108t-66 133.5t-38.5 148.5t-13.5 153v211q1 76 13.5 153t38.5 148.5t66 133.5t94.5 108.5t125 73t157.5 26.5q106 0 189.5 -35t144.5 -97.5t97.5 -147.5t47.5 -185 h-119q-12 75 -38.5 141t-70.5 115.5t-106 78t-145 28.5q-71 0 -126 -24t-96.5 -64t-70.5 -93.5t-47 -113.5t-26.5 -122.5t-8.5 -121.5v-213q0 -59 8.5 -122t26.5 -123t47 -113.5t70.5 -94t96.5 -64.5t126 -24q84 0 146.5 27.5t106 76.5t70 115t37.5 142h119zM921 1629v-17 h-111l-169 174l-167 -174h-108v20l238 239h76z" />
<glyph unicode="&#x109;" d="M632 81q60 0 114.5 17.5t96.5 50.5t68.5 79.5t30.5 105.5h115q-4 -77 -40 -142t-94 -112t-133 -73.5t-158 -26.5q-119 0 -207 45t-146.5 120t-88 172.5t-29.5 202.5v42q0 105 29.5 202.5t88 172.5t146.5 120t206 45q90 0 166.5 -28.5t133 -80t89.5 -122t37 -154.5h-115 q-3 61 -28 113t-66 90t-96.5 59t-120.5 21q-94 0 -160.5 -38t-108.5 -100t-61.5 -140.5t-19.5 -159.5v-42q0 -82 19.5 -161t61.5 -140.5t108.5 -99.5t161.5 -38zM920 1286v-17h-111l-169 174l-167 -174h-108v20l238 239h76z" />
<glyph unicode="&#x10a;" d="M1099 442q-12 -98 -49 -182.5t-98 -147t-144.5 -97.5t-187.5 -35q-87 0 -157.5 26.5t-125 72.5t-94.5 108t-66 133.5t-38.5 148.5t-13.5 153v211q1 76 13.5 153t38.5 148.5t66 133.5t94.5 108.5t125 73t157.5 26.5q106 0 189.5 -35t144.5 -97.5t97.5 -147.5t47.5 -185 h-119q-12 75 -38.5 141t-70.5 115.5t-106 78t-145 28.5q-71 0 -126 -24t-96.5 -64t-70.5 -93.5t-47 -113.5t-26.5 -122.5t-8.5 -121.5v-213q0 -59 8.5 -122t26.5 -123t47 -113.5t70.5 -94t96.5 -64.5t126 -24q84 0 146.5 27.5t106 76.5t70 115t37.5 142h119zM553 1732 q0 34 22.5 58.5t63.5 24.5q40 0 63 -24t23 -59t-23 -58.5t-63 -23.5q-41 0 -63.5 23.5t-22.5 58.5z" />
<glyph unicode="&#x10b;" d="M632 81q60 0 114.5 17.5t96.5 50.5t68.5 79.5t30.5 105.5h115q-4 -77 -40 -142t-94 -112t-133 -73.5t-158 -26.5q-119 0 -207 45t-146.5 120t-88 172.5t-29.5 202.5v42q0 105 29.5 202.5t88 172.5t146.5 120t206 45q90 0 166.5 -28.5t133 -80t89.5 -122t37 -154.5h-115 q-3 61 -28 113t-66 90t-96.5 59t-120.5 21q-94 0 -160.5 -38t-108.5 -100t-61.5 -140.5t-19.5 -159.5v-42q0 -82 19.5 -161t61.5 -140.5t108.5 -99.5t161.5 -38zM552 1389q0 34 22.5 58.5t63.5 24.5q40 0 63 -24t23 -59t-23 -58.5t-63 -23.5q-41 0 -63.5 23.5t-22.5 58.5z " />
<glyph unicode="&#x10c;" d="M1099 442q-12 -98 -49 -182.5t-98 -147t-144.5 -97.5t-187.5 -35q-87 0 -157.5 26.5t-125 72.5t-94.5 108t-66 133.5t-38.5 148.5t-13.5 153v211q1 76 13.5 153t38.5 148.5t66 133.5t94.5 108.5t125 73t157.5 26.5q106 0 189.5 -35t144.5 -97.5t97.5 -147.5t47.5 -185 h-119q-12 75 -38.5 141t-70.5 115.5t-106 78t-145 28.5q-71 0 -126 -24t-96.5 -64t-70.5 -93.5t-47 -113.5t-26.5 -122.5t-8.5 -121.5v-213q0 -59 8.5 -122t26.5 -123t47 -113.5t70.5 -94t96.5 -64.5t126 -24q84 0 146.5 27.5t106 76.5t70 115t37.5 142h119zM640 1688 l173 185h106v-15l-236 -249h-86l-236 248v16h107z" />
<glyph unicode="&#x10d;" d="M632 81q60 0 114.5 17.5t96.5 50.5t68.5 79.5t30.5 105.5h115q-4 -77 -40 -142t-94 -112t-133 -73.5t-158 -26.5q-119 0 -207 45t-146.5 120t-88 172.5t-29.5 202.5v42q0 105 29.5 202.5t88 172.5t146.5 120t206 45q90 0 166.5 -28.5t133 -80t89.5 -122t37 -154.5h-115 q-3 61 -28 113t-66 90t-96.5 59t-120.5 21q-94 0 -160.5 -38t-108.5 -100t-61.5 -140.5t-19.5 -159.5v-42q0 -82 19.5 -161t61.5 -140.5t108.5 -99.5t161.5 -38zM639 1345l173 185h106v-15l-236 -249h-86l-236 248v16h107z" />
<glyph unicode="&#x10e;" d="M177 0v1456h352q140 -2 250 -55t186 -142t116 -207.5t42 -252.5v-143q-2 -134 -42 -252.5t-116 -207.5t-186 -141.5t-250 -54.5h-352zM297 1354v-1253h232q117 2 205.5 48t147.5 122.5t89.5 176t31.5 208.5v146q-1 108 -31.5 207t-89.5 175t-147.5 122t-205.5 48h-232z M564 1667l173 185h106v-15l-236 -249h-86l-236 248v16h107z" />
<glyph unicode="&#x10f;" horiz-adv-x="1379" d="M157 551q0 108 27 207.5t80.5 176t134 122t189.5 45.5q103 0 184.5 -44t136.5 -123v601h119v-1536h-112l-5 141q-57 -78 -140 -119.5t-185 -41.5q-107 0 -187.5 46.5t-134 123t-80.5 176t-27 204.5v21zM278 530q0 -81 17.5 -161t56.5 -143.5t102 -102.5t154 -39 q51 0 96.5 13t84 37.5t69 59t51.5 77.5v524q-20 45 -49.5 82t-67.5 64t-84 42t-98 15q-92 0 -155 -39.5t-102.5 -103t-57 -143.5t-17.5 -161v-21zM1423 1421q0 -44 -9.5 -88.5t-27 -87t-43.5 -82t-60 -72.5l-69 52q45 63 67.5 130t23.5 146v126h118v-124z" />
<glyph unicode="&#x110;" horiz-adv-x="1259" d="M207 0v689h-252v102h252v665h352q140 -2 250 -55t186 -142t116 -207.5t42 -252.5v-143q-2 -134 -42 -252.5t-116 -207.5t-186 -141.5t-250 -54.5h-352zM567 689h-240v-588h232q117 2 205.5 48t147.5 122.5t89.5 176t31.5 208.5v146q-1 108 -31.5 207t-89.5 175 t-147.5 122t-205.5 48h-232v-563h240v-102z" />
<glyph unicode="&#x111;" horiz-adv-x="1259" d="M1219 1257h-191v-1257h-112l-5 141q-57 -78 -140 -119.5t-185 -41.5q-107 0 -187.5 46.5t-134 123t-80.5 176t-27 204.5v21q0 108 27 207.5t80.5 176t134 122t189.5 45.5q103 0 184.5 -44t136.5 -123v322h-302v102h302v177h119v-177h191v-102zM278 530q0 -81 17.5 -161 t56.5 -143.5t102 -102.5t154 -39q51 0 96.5 13t84 37.5t69 59t51.5 77.5v524q-20 45 -49.5 82t-67.5 64t-84 42t-98 15q-92 0 -155 -39.5t-102.5 -103t-57 -143.5t-17.5 -161v-21z" />
<glyph unicode="&#x112;" d="M962 698h-642v-594h740v-104h-859v1456h855v-105h-736v-549h642v-104zM905 1689h-670v97h670v-97z" />
<glyph unicode="&#x113;" d="M655 -20q-113 0 -206 42t-159.5 114t-103 168.5t-37.5 205.5v43q1 116 38.5 216t102.5 174t153 116.5t189 42.5q108 0 191 -39t139.5 -106.5t86 -157.5t30.5 -193v-73h-810v-23q1 -85 29 -162.5t79 -136.5t123 -94.5t160 -35.5q100 -1 181 37t138 110l76 -57 q-30 -42 -71 -77.5t-91.5 -60.5t-110.5 -39t-127 -14zM632 1000q-73 0 -134 -27.5t-107 -76.5t-76 -115.5t-41 -145.5h685v13q-2 67 -24.5 130.5t-64 112.5t-101.5 79t-137 30zM956 1368h-670v97h670v-97z" />
<glyph unicode="&#x114;" d="M962 698h-642v-594h740v-104h-859v1456h855v-105h-736v-549h642v-104zM862 1837q-2 -59 -23.5 -106.5t-59.5 -81t-90 -51.5t-115 -18t-115.5 18t-91 51.5t-60 81t-23.5 106.5h102q3 -80 51.5 -125.5t136.5 -45.5q85 0 133.5 46t52.5 125h102z" />
<glyph unicode="&#x115;" d="M655 -20q-113 0 -206 42t-159.5 114t-103 168.5t-37.5 205.5v43q1 116 38.5 216t102.5 174t153 116.5t189 42.5q108 0 191 -39t139.5 -106.5t86 -157.5t30.5 -193v-73h-810v-23q1 -85 29 -162.5t79 -136.5t123 -94.5t160 -35.5q100 -1 181 37t138 110l76 -57 q-30 -42 -71 -77.5t-91.5 -60.5t-110.5 -39t-127 -14zM632 1000q-73 0 -134 -27.5t-107 -76.5t-76 -115.5t-41 -145.5h685v13q-2 67 -24.5 130.5t-64 112.5t-101.5 79t-137 30zM913 1516q-2 -59 -23.5 -106.5t-59.5 -81t-90 -51.5t-115 -18t-115.5 18t-91 51.5t-60 81 t-23.5 106.5h102q3 -80 51.5 -125.5t136.5 -45.5q85 0 133.5 46t52.5 125h102z" />
<glyph unicode="&#x116;" d="M962 698h-642v-594h740v-104h-859v1456h855v-105h-736v-549h642v-104zM486 1711q0 34 22.5 58.5t63.5 24.5q40 0 63 -24t23 -59t-23 -58.5t-63 -23.5q-41 0 -63.5 23.5t-22.5 58.5z" />
<glyph unicode="&#x117;" d="M655 -20q-113 0 -206 42t-159.5 114t-103 168.5t-37.5 205.5v43q1 116 38.5 216t102.5 174t153 116.5t189 42.5q108 0 191 -39t139.5 -106.5t86 -157.5t30.5 -193v-73h-810v-23q1 -85 29 -162.5t79 -136.5t123 -94.5t160 -35.5q100 -1 181 37t138 110l76 -57 q-30 -42 -71 -77.5t-91.5 -60.5t-110.5 -39t-127 -14zM632 1000q-73 0 -134 -27.5t-107 -76.5t-76 -115.5t-41 -145.5h685v13q-2 67 -24.5 130.5t-64 112.5t-101.5 79t-137 30zM537 1390q0 34 22.5 58.5t63.5 24.5q40 0 63 -24t23 -59t-23 -58.5t-63 -23.5q-41 0 -63.5 23.5 t-22.5 58.5z" />
<glyph unicode="&#x118;" d="M962 698h-642v-594h740v-104h-107q-34 -21 -67.5 -46t-59.5 -54t-42.5 -62t-16.5 -70q1 -40 23.5 -62.5t65.5 -23.5q32 -1 60 9t49 24l23 -84q-29 -19 -66.5 -31.5t-88.5 -12.5q-37 0 -68.5 11t-55 33t-36.5 53t-13 72q0 35 13.5 68.5t36.5 64.5t53.5 59t65.5 52h-628 v1456h855v-105h-736v-549h642v-104z" />
<glyph unicode="&#x119;" d="M655 -20q-113 0 -206 42t-159.5 114t-103 168.5t-37.5 205.5v43q1 116 38.5 216t102.5 174t153 116.5t189 42.5q108 0 191 -39t139.5 -106.5t86 -157.5t30.5 -193v-73h-810v-23q1 -85 29 -162.5t79 -136.5t123 -94.5t160 -35.5q100 -1 181 37t138 110l76 -57 q-32 -45 -76 -81.5t-99 -62.5q-33 -21 -64 -45t-56 -52.5t-40 -60t-15 -67.5q1 -40 23.5 -62.5t65.5 -23.5q32 -1 60 9t49 24l23 -84q-29 -19 -66.5 -31.5t-88.5 -12.5q-37 0 -68.5 11t-55 33t-36.5 53t-13 72q0 53 29 101.5t75 90.5q-12 -1 -23.5 -1.5t-23.5 -0.5z M632 1000q-73 0 -134 -27.5t-107 -76.5t-76 -115.5t-41 -145.5h685v13q-2 67 -24.5 130.5t-64 112.5t-101.5 79t-137 30z" />
<glyph unicode="&#x11a;" d="M962 698h-642v-594h740v-104h-859v1456h855v-105h-736v-549h642v-104zM573 1667l173 185h106v-15l-236 -249h-86l-236 248v16h107z" />
<glyph unicode="&#x11b;" d="M655 -20q-113 0 -206 42t-159.5 114t-103 168.5t-37.5 205.5v43q1 116 38.5 216t102.5 174t153 116.5t189 42.5q108 0 191 -39t139.5 -106.5t86 -157.5t30.5 -193v-73h-810v-23q1 -85 29 -162.5t79 -136.5t123 -94.5t160 -35.5q100 -1 181 37t138 110l76 -57 q-30 -42 -71 -77.5t-91.5 -60.5t-110.5 -39t-127 -14zM632 1000q-73 0 -134 -27.5t-107 -76.5t-76 -115.5t-41 -145.5h685v13q-2 67 -24.5 130.5t-64 112.5t-101.5 79t-137 30zM624 1346l173 185h106v-15l-236 -249h-86l-236 248v16h107z" />
<glyph unicode="&#x11c;" d="M1097 173q-43 -51 -95 -88t-110.5 -60.5t-122.5 -34t-130 -10.5q-87 1 -159.5 27.5t-130.5 73t-101 109t-71.5 134.5t-43.5 150.5t-16 156.5v204q1 76 14.5 153t41 148.5t68.5 133t97 107.5t126.5 72.5t157.5 26.5q97 0 179.5 -31.5t144.5 -88t100.5 -135.5t48.5 -175 h-118q-14 70 -42.5 130t-72.5 103t-103.5 67.5t-135.5 24.5q-70 0 -126 -23.5t-98.5 -63t-73 -92t-50 -112t-28.5 -122t-10 -121.5v-206q1 -61 11.5 -125t31.5 -124.5t53 -114.5t76.5 -94.5t101.5 -64t129 -24.5q45 -1 93 4.5t93.5 20t85 39.5t68.5 63l1 376h-345v104h459z M913 1629v-17h-111l-169 174l-167 -174h-108v20l238 239h76z" />
<glyph unicode="&#x11d;" d="M159 551q0 108 26 207.5t79.5 176t134 122t190.5 45.5q104 0 186.5 -44.5t137.5 -125.5l5 150h112v-1063q-1 -99 -31 -182t-86.5 -142.5t-136.5 -92.5t-180 -33q-48 0 -100 11t-102 34t-95.5 57.5t-79.5 82.5l67 72q129 -156 302 -156q77 0 137 25t100.5 70.5t62 109 t22.5 139.5v123q-57 -76 -139.5 -116.5t-183.5 -40.5q-108 0 -188.5 46.5t-133.5 123t-79.5 176t-26.5 204.5v21zM279 530q0 -81 17.5 -161t56.5 -143.5t102 -102.5t154 -39q51 0 97 13.5t84.5 38.5t69 60.5t50.5 79.5v515q-20 45 -49 83t-67 65.5t-84 43t-99 15.5 q-92 0 -155 -39.5t-102.5 -103t-57 -143.5t-17.5 -161v-21zM901 1286v-17h-111l-169 174l-167 -174h-108v20l238 239h76z" />
<glyph unicode="&#x11e;" d="M1097 173q-43 -51 -95 -88t-110.5 -60.5t-122.5 -34t-130 -10.5q-87 1 -159.5 27.5t-130.5 73t-101 109t-71.5 134.5t-43.5 150.5t-16 156.5v204q1 76 14.5 153t41 148.5t68.5 133t97 107.5t126.5 72.5t157.5 26.5q97 0 179.5 -31.5t144.5 -88t100.5 -135.5t48.5 -175 h-118q-14 70 -42.5 130t-72.5 103t-103.5 67.5t-135.5 24.5q-70 0 -126 -23.5t-98.5 -63t-73 -92t-50 -112t-28.5 -122t-10 -121.5v-206q1 -61 11.5 -125t31.5 -124.5t53 -114.5t76.5 -94.5t101.5 -64t129 -24.5q45 -1 93 4.5t93.5 20t85 39.5t68.5 63l1 376h-345v104h459z M921 1858q-2 -59 -23.5 -106.5t-59.5 -81t-90 -51.5t-115 -18t-115.5 18t-91 51.5t-60 81t-23.5 106.5h102q3 -80 51.5 -125.5t136.5 -45.5q85 0 133.5 46t52.5 125h102z" />
<glyph unicode="&#x11f;" d="M159 551q0 108 26 207.5t79.5 176t134 122t190.5 45.5q104 0 186.5 -44.5t137.5 -125.5l5 150h112v-1063q-1 -99 -31 -182t-86.5 -142.5t-136.5 -92.5t-180 -33q-48 0 -100 11t-102 34t-95.5 57.5t-79.5 82.5l67 72q129 -156 302 -156q77 0 137 25t100.5 70.5t62 109 t22.5 139.5v123q-57 -76 -139.5 -116.5t-183.5 -40.5q-108 0 -188.5 46.5t-133.5 123t-79.5 176t-26.5 204.5v21zM279 530q0 -81 17.5 -161t56.5 -143.5t102 -102.5t154 -39q51 0 97 13.5t84.5 38.5t69 60.5t50.5 79.5v515q-20 45 -49 83t-67 65.5t-84 43t-99 15.5 q-92 0 -155 -39.5t-102.5 -103t-57 -143.5t-17.5 -161v-21zM909 1515q-2 -59 -23.5 -106.5t-59.5 -81t-90 -51.5t-115 -18t-115.5 18t-91 51.5t-60 81t-23.5 106.5h102q3 -80 51.5 -125.5t136.5 -45.5q85 0 133.5 46t52.5 125h102z" />
<glyph unicode="&#x120;" d="M1097 173q-43 -51 -95 -88t-110.5 -60.5t-122.5 -34t-130 -10.5q-87 1 -159.5 27.5t-130.5 73t-101 109t-71.5 134.5t-43.5 150.5t-16 156.5v204q1 76 14.5 153t41 148.5t68.5 133t97 107.5t126.5 72.5t157.5 26.5q97 0 179.5 -31.5t144.5 -88t100.5 -135.5t48.5 -175 h-118q-14 70 -42.5 130t-72.5 103t-103.5 67.5t-135.5 24.5q-70 0 -126 -23.5t-98.5 -63t-73 -92t-50 -112t-28.5 -122t-10 -121.5v-206q1 -61 11.5 -125t31.5 -124.5t53 -114.5t76.5 -94.5t101.5 -64t129 -24.5q45 -1 93 4.5t93.5 20t85 39.5t68.5 63l1 376h-345v104h459z M545 1732q0 34 22.5 58.5t63.5 24.5q40 0 63 -24t23 -59t-23 -58.5t-63 -23.5q-41 0 -63.5 23.5t-22.5 58.5z" />
<glyph unicode="&#x121;" d="M159 551q0 108 26 207.5t79.5 176t134 122t190.5 45.5q104 0 186.5 -44.5t137.5 -125.5l5 150h112v-1063q-1 -99 -31 -182t-86.5 -142.5t-136.5 -92.5t-180 -33q-48 0 -100 11t-102 34t-95.5 57.5t-79.5 82.5l67 72q129 -156 302 -156q77 0 137 25t100.5 70.5t62 109 t22.5 139.5v123q-57 -76 -139.5 -116.5t-183.5 -40.5q-108 0 -188.5 46.5t-133.5 123t-79.5 176t-26.5 204.5v21zM279 530q0 -81 17.5 -161t56.5 -143.5t102 -102.5t154 -39q51 0 97 13.5t84.5 38.5t69 60.5t50.5 79.5v515q-20 45 -49 83t-67 65.5t-84 43t-99 15.5 q-92 0 -155 -39.5t-102.5 -103t-57 -143.5t-17.5 -161v-21zM533 1389q0 34 22.5 58.5t63.5 24.5q40 0 63 -24t23 -59t-23 -58.5t-63 -23.5q-41 0 -63.5 23.5t-22.5 58.5z" />
<glyph unicode="&#x122;" d="M1097 173q-43 -51 -95 -88t-110.5 -60.5t-122.5 -34t-130 -10.5q-87 1 -159.5 27.5t-130.5 73t-101 109t-71.5 134.5t-43.5 150.5t-16 156.5v204q1 76 14.5 153t41 148.5t68.5 133t97 107.5t126.5 72.5t157.5 26.5q97 0 179.5 -31.5t144.5 -88t100.5 -135.5t48.5 -175 h-118q-14 70 -42.5 130t-72.5 103t-103.5 67.5t-135.5 24.5q-70 0 -126 -23.5t-98.5 -63t-73 -92t-50 -112t-28.5 -122t-10 -121.5v-206q1 -61 11.5 -125t31.5 -124.5t53 -114.5t76.5 -94.5t101.5 -64t129 -24.5q45 -1 93 4.5t93.5 20t85 39.5t68.5 63l1 376h-345v104h459z M694 -156q-1 -76 -28.5 -153t-87.5 -136l-71 52q35 55 53 111.5t19 123.5v76h115v-74z" />
<glyph unicode="&#x123;" d="M159 551q0 108 26 207.5t79.5 176t134 122t190.5 45.5q104 0 186.5 -44.5t137.5 -125.5l5 150h112v-1063q-1 -99 -31 -182t-86.5 -142.5t-136.5 -92.5t-180 -33q-48 0 -100 11t-102 34t-95.5 57.5t-79.5 82.5l67 72q129 -156 302 -156q77 0 137 25t100.5 70.5t62 109 t22.5 139.5v123q-57 -76 -139.5 -116.5t-183.5 -40.5q-108 0 -188.5 46.5t-133.5 123t-79.5 176t-26.5 204.5v21zM279 530q0 -81 17.5 -161t56.5 -143.5t102 -102.5t154 -39q51 0 97 13.5t84.5 38.5t69 60.5t50.5 79.5v515q-20 45 -49 83t-67 65.5t-84 43t-99 15.5 q-92 0 -155 -39.5t-102.5 -103t-57 -143.5t-17.5 -161v-21zM595 1392q0 35 9 69.5t23 65.5t31.5 58.5t35.5 49.5l76 -49q-27 -50 -41 -96t-15 -100v-126h-119v128z" />
<glyph unicode="&#x124;" d="M1069 0h-113v698h-684v-698h-113v1456h113v-654h684v654h113v-1456zM889 1608v-17h-111l-169 174l-167 -174h-108v20l238 239h76z" />
<glyph unicode="&#x125;" d="M313 873q57 104 152 166t217 63q89 0 157.5 -27.5t115 -80t71 -129t24.5 -174.5v-691h-120v691q0 72 -17 129t-51.5 96.5t-86.5 60.5t-122 21q-57 0 -109 -18t-96 -50t-78.5 -75.5t-56.5 -95.5v-759h-120v1536h120v-663zM695 1626v-17h-111l-169 174l-167 -174h-108v20 l238 239h76z" />
<glyph unicode="&#x126;" d="M1064 1123h140v-97h-140v-1026h-113v698h-684v-698h-113v1026h-118v97h118v333h113v-333h684v333h113v-333zM267 802h684v224h-684v-224z" />
<glyph unicode="&#x127;" horiz-adv-x="1259" d="M635 1257h-292v-384q57 104 152 166t217 63q89 0 157.5 -27.5t115 -80t71 -129t24.5 -174.5v-691h-120v691q0 72 -17 129t-51.5 96.5t-86.5 60.5t-122 21q-57 0 -109 -18t-96 -50t-78.5 -75.5t-56.5 -95.5v-759h-120v1257h-200v102h200v177h120v-177h292v-102z" />
<glyph unicode="&#x128;" d="M193 1456h843v-108h-365v-1242h365v-106h-843v106h354v1242h-354v108zM926 1824q-2 -41 -15.5 -78t-38 -65t-58.5 -44.5t-77 -16.5q-47 0 -80.5 17t-63.5 38t-61 38t-72 17q-51 -1 -79 -35t-31 -84l-79 13q1 40 14.5 77t38 65t59 44.5t77.5 16.5q42 0 75.5 -17.5t65 -38 t64 -37.5t72.5 -17q25 0 45 10t34 26.5t21.5 38.5t9.5 47z" />
<glyph unicode="&#x129;" d="M221 1082h502v-976h368v-106h-870v106h382v869h-382v107zM989 1513q-2 -41 -15.5 -78t-38 -65t-58.5 -44.5t-77 -16.5q-47 0 -80.5 17t-63.5 38t-61 38t-72 17q-51 -1 -79 -35t-31 -84l-79 13q1 40 14.5 77t38 65t59 44.5t77.5 16.5q42 0 75.5 -17.5t65 -38t64 -37.5 t72.5 -17q25 0 45 10t34 26.5t21.5 38.5t9.5 47z" />
<glyph unicode="&#x12a;" d="M193 1456h843v-108h-365v-1242h365v-106h-843v106h354v1242h-354v108zM932 1689h-670v97h670v-97z" />
<glyph unicode="&#x12b;" d="M221 1082h502v-976h368v-106h-870v106h382v869h-382v107zM994 1378h-670v97h670v-97z" />
<glyph unicode="&#x12c;" d="M193 1456h843v-108h-365v-1242h365v-106h-843v106h354v1242h-354v108zM889 1837q-2 -59 -23.5 -106.5t-59.5 -81t-90 -51.5t-115 -18t-115.5 18t-91 51.5t-60 81t-23.5 106.5h102q3 -80 51.5 -125.5t136.5 -45.5q85 0 133.5 46t52.5 125h102z" />
<glyph unicode="&#x12d;" d="M221 1082h502v-976h368v-106h-870v106h382v869h-382v107zM951 1526q-2 -59 -23.5 -106.5t-59.5 -81t-90 -51.5t-115 -18t-115.5 18t-91 51.5t-60 81t-23.5 106.5h102q3 -80 51.5 -125.5t136.5 -45.5q85 0 133.5 46t52.5 125h102z" />
<glyph unicode="&#x12e;" d="M193 1456h843v-108h-365v-1242h365v-106h-293q-34 -21 -67.5 -46t-59.5 -54t-42.5 -62t-16.5 -70q1 -40 23.5 -62.5t65.5 -23.5q32 -1 60 9t49 24l23 -84q-29 -19 -66.5 -31.5t-88.5 -12.5q-37 0 -68.5 11t-55 33t-36.5 53t-13 72q0 35 13.5 68.5t36.5 64.5t53.5 59 t65.5 52h-426v106h354v1242h-354v108z" />
<glyph unicode="&#x12f;" d="M221 1082h502v-976h368v-106h-368q-34 -21 -67.5 -46t-59.5 -54t-42.5 -62t-16.5 -70q1 -40 23.5 -62.5t65.5 -23.5q32 -1 60 9t49 24l23 -84q-29 -19 -66.5 -31.5t-88.5 -12.5q-37 0 -68.5 11t-55 33t-36.5 53t-13 72q0 35 13.5 68.5t36.5 64.5t53.5 59t65.5 52h-378 v106h382v869h-382v107zM568 1378q0 37 21 64t70 27q48 0 69.5 -27t21.5 -64q0 -35 -21.5 -61.5t-69.5 -26.5q-49 0 -70 26.5t-21 61.5z" />
<glyph unicode="&#x130;" d="M193 1456h843v-108h-365v-1242h365v-106h-843v106h354v1242h-354v108zM513 1711q0 34 22.5 58.5t63.5 24.5q40 0 63 -24t23 -59t-23 -58.5t-63 -23.5q-41 0 -63.5 23.5t-22.5 58.5z" />
<glyph unicode="&#x131;" d="M221 1082h502v-976h368v-106h-870v106h382v869h-382v107z" />
<glyph unicode="&#x132;" d="M258 0h-120v1456h120v-1456zM975 1456h120v-1124q0 -166 -84.5 -258.5t-261.5 -92.5q-75 0 -137.5 20.5t-107 62.5t-69.5 106t-25 151h120q0 -125 57.5 -182t161.5 -57q67 0 111 18.5t69.5 52t35.5 79.5t10 100v1124z" />
<glyph unicode="&#x133;" d="M681 1082h365v-1082q0 -101 -27.5 -181.5t-80 -137t-128.5 -86.5t-172 -30q-29 0 -54.5 1t-50.5 3t-50 5t-53 8l9 101q18 -3 44.5 -5.5t54 -4t52 -2t39.5 -0.5q60 0 114.5 17t95 55.5t64.5 101.5t24 155v975h-246v107zM107 1082h377v-976h216v-106h-595v106h259v869h-257 v107zM887 1377q0 37 20.5 64t69.5 27q48 0 70 -27t22 -64q0 -35 -22 -61.5t-70 -26.5q-49 0 -69.5 26.5t-20.5 61.5zM333 1376q0 37 21 64t69 27t69.5 -27t21.5 -64q0 -35 -21.5 -61.5t-69.5 -26.5t-69 26.5t-21 61.5z" />
<glyph unicode="&#x134;" d="M902 1456h122v-1014q-2 -98 -36 -182t-94.5 -146t-143.5 -98t-182 -36t-180.5 30.5t-140.5 87t-94 135.5t-42 177h122q3 -72 28 -132.5t68.5 -103.5t103.5 -66.5t135 -23.5q76 0 137 29t104.5 78t67 114t25.5 137v1014zM1239 1586v-17h-111l-169 174l-167 -174h-108v20 l238 239h76z" />
<glyph unicode="&#x135;" d="M265 1082h532v-1082q0 -102 -27.5 -183t-80 -137.5t-128.5 -86.5t-172 -30q-29 0 -54.5 1t-50.5 3t-50 5t-53 8l9 99q18 -3 44.5 -5.5t53.5 -4t52 -2t40 -0.5q60 0 114 17t94.5 56.5t64.5 103t24 156.5v975h-412v107zM1013 1315v-17h-111l-169 174l-167 -174h-108v20 l238 239h76z" />
<glyph unicode="&#x136;" d="M508 721l-187 -199v-522h-121v1456h121v-779l179 206l492 573h149l-552 -647l592 -809h-146zM664 -88q-1 -76 -28.5 -153t-87.5 -136l-71 52q35 55 53 111.5t19 123.5v76h115v-74z" />
<glyph unicode="&#x137;" d="M490 547l-153 -137v-410h-121v1536h121v-988l129 127l439 407h153l-483 -456l533 -626h-154zM596 -85q-1 -76 -28.5 -153t-87.5 -136l-71 52q35 55 53 111.5t19 123.5v76h115v-74z" />
<glyph unicode="&#x138;" d="M506 506l-173 -157v-349h-120v1082h120v-598l147 152l448 446h147l-487 -495l537 -587h-154z" />
<glyph unicode="&#x139;" d="M340 104h741v-104h-861v1456h120v-1352zM405 1781h145l-230 -266h-99z" />
<glyph unicode="&#x13a;" d="M221 1536h504v-1430h366v-106h-870v106h384v1323h-384v107zM764 1899h145l-230 -266h-99z" />
<glyph unicode="&#x13b;" d="M340 104h741v-104h-861v1456h120v-1352zM662 -142q-1 -76 -28.5 -153t-87.5 -136l-71 52q35 55 53 111.5t19 123.5v76h115v-74z" />
<glyph unicode="&#x13c;" d="M221 1536h504v-1430h366v-106h-870v106h384v1323h-384v107zM730 -141q-1 -76 -28.5 -153t-87.5 -136l-71 52q35 55 53 111.5t19 123.5v76h115v-74z" />
<glyph unicode="&#x13d;" d="M340 104h741v-104h-861v1456h120v-1352zM872 1331q0 -44 -9.5 -88.5t-27 -87t-43.5 -82t-60 -72.5l-69 52q45 63 67.5 130t23.5 146v126h118v-124z" />
<glyph unicode="&#x13e;" horiz-adv-x="1379" d="M221 1536h504v-1430h366v-106h-870v106h384v1323h-384v107zM1155 1415q0 -44 -9.5 -88.5t-27 -87t-43.5 -82t-60 -72.5l-69 52q45 63 67.5 130t23.5 146v126h118v-124z" />
<glyph unicode="&#x13f;" d="M340 104h741v-104h-861v1456h120v-1352zM573 772q0 34 22.5 58.5t63.5 24.5q40 0 63 -24t23 -59t-23 -58.5t-63 -23.5q-41 0 -63.5 23.5t-22.5 58.5z" />
<glyph unicode="&#x140;" horiz-adv-x="1449" d="M221 1536h504v-1430h366v-106h-870v106h384v1323h-384v107zM864 824q0 34 22.5 58.5t63.5 24.5q40 0 63 -24t23 -59t-23 -58.5t-63 -23.5q-41 0 -63.5 23.5t-22.5 58.5z" />
<glyph unicode="&#x141;" d="M362 823l294 92v-109l-294 -92v-610h741v-104h-861v677l-185 -58v109l185 58v670h120v-633z" />
<glyph unicode="&#x142;" d="M725 901l344 114l-4 -109l-340 -114v-686h366v-106h-870v106h384v646l-370 -123l3 110l367 122v568h-384v107h504v-635z" />
<glyph unicode="&#x143;" d="M1068 0h-119l-668 1229l-1 -1229h-119v1456h119l668 -1227l1 1227h119v-1456zM734 1829h145l-230 -266h-99z" />
<glyph unicode="&#x144;" d="M303 1082l9 -203q57 101 152 161.5t216 61.5q178 0 272 -106.5t95 -302.5v-693h-120v691q-1 149 -68 228.5t-208 78.5q-58 0 -110.5 -19t-96 -52t-77 -78t-54.5 -98v-751h-120v1082h110zM729 1507h145l-230 -266h-99z" />
<glyph unicode="&#x145;" d="M1068 0h-119l-668 1229l-1 -1229h-119v1456h119l668 -1227l1 1227h119v-1456zM674 -142q-1 -76 -28.5 -153t-87.5 -136l-71 52q35 55 53 111.5t19 123.5v76h115v-74z" />
<glyph unicode="&#x146;" d="M303 1082l9 -203q57 101 152 161.5t216 61.5q178 0 272 -106.5t95 -302.5v-693h-120v691q-1 149 -68 228.5t-208 78.5q-58 0 -110.5 -19t-96 -52t-77 -78t-54.5 -98v-751h-120v1082h110zM671 -142q-1 -76 -28.5 -153t-87.5 -136l-71 52q35 55 53 111.5t19 123.5v76h115 v-74z" />
<glyph unicode="&#x147;" d="M1068 0h-119l-668 1229l-1 -1229h-119v1456h119l668 -1227l1 1227h119v-1456zM611 1667l173 185h106v-15l-236 -249h-86l-236 248v16h107z" />
<glyph unicode="&#x148;" d="M303 1082l9 -203q57 101 152 161.5t216 61.5q178 0 272 -106.5t95 -302.5v-693h-120v691q-1 149 -68 228.5t-208 78.5q-58 0 -110.5 -19t-96 -52t-77 -78t-54.5 -98v-751h-120v1082h110zM606 1345l173 185h106v-15l-236 -249h-86l-236 248v16h107z" />
<glyph unicode="&#x149;" d="M303 1082l9 -203q57 101 152 161.5t216 61.5q178 0 272 -106.5t95 -302.5v-693h-120v691q-1 149 -68 228.5t-208 78.5q-58 0 -110.5 -19t-96 -52t-77 -78t-54.5 -98v-751h-120v1082h110zM214 1422q0 -44 -9.5 -88.5t-27 -87t-43.5 -82t-60 -72.5l-69 52q45 63 67.5 130 t23.5 146v126h118v-124z" />
<glyph unicode="&#x14a;" d="M1043 1456l1 -1545q0 -68 -16 -131t-49 -111t-85 -77t-124 -29q-28 0 -52 5.5t-50 13.5l13 99q18 -7 45 -11.5t44 -4.5q44 0 73.5 22.5t47.5 57.5t26 79t8 87v93l-623 1212v-1216h-118v1456h118v-4l623 -1210v1214h118z" />
<glyph unicode="&#x14b;" d="M311 1082l10 -191q25 48 59 86.5t77 66.5t95.5 43t114.5 15q94 0 162 -32t112 -90.5t65 -140t21 -180.5v-748q0 -75 -19.5 -138.5t-57.5 -110t-94.5 -73t-132.5 -26.5q-32 0 -61.5 5t-61.5 14l13 103q12 -3 26.5 -6t29.5 -5t29 -3t25 -1q48 0 83 19t57.5 52t33.5 76.5 t11 93.5v747q0 73 -14.5 135.5t-46 108t-82.5 71t-125 25.5q-65 0 -116 -18t-90 -49t-66.5 -73.5t-44.5 -92.5v-765h-119v1082h107z" />
<glyph unicode="&#x14c;" d="M1103 631q-1 -74 -13 -151.5t-37.5 -150t-64.5 -136t-92.5 -111t-123.5 -75t-157 -27.5q-86 0 -156 27.5t-124.5 75t-94 111.5t-65 136.5t-38 149.5t-13.5 151v192q1 74 13.5 151.5t37.5 150t64.5 136.5t93.5 112t123.5 75.5t156.5 27.5t157 -27.5t124.5 -75t93.5 -111.5 t64.5 -136.5t37.5 -150t13 -152.5v-192zM985 825q-1 58 -9 121t-26 123t-46.5 114.5t-69.5 95.5t-96 65t-125 24t-124.5 -24.5t-95.5 -65.5t-69.5 -95.5t-46.5 -114.5t-26 -123t-9 -120v-194q1 -58 9.5 -120.5t26.5 -123t46.5 -115t69.5 -95.5t96 -65.5t125 -24.5 q71 0 125.5 24.5t95.5 65.5t69.5 95.5t46 115t25 123t8.5 120.5v194zM958 1710h-670v97h670v-97z" />
<glyph unicode="&#x14d;" d="M131 557q1 110 34 209t94.5 173.5t151 118.5t202.5 44q114 0 203.5 -44t151.5 -118.5t95 -173.5t34 -209v-33q-1 -110 -33.5 -209t-94.5 -173.5t-151 -118t-203 -43.5t-203.5 43.5t-151.5 118t-95 173.5t-34 209v33zM251 524q0 -86 24 -166t70 -141.5t113.5 -98.5 t156.5 -37q88 0 155.5 37t113 98.5t69.5 141.5t24 166v33q0 85 -24 165t-70 141.5t-114 99t-156 37.5t-155.5 -37.5t-113 -99t-69.5 -141.5t-24 -165v-33zM947 1367h-670v97h670v-97z" />
<glyph unicode="&#x14e;" d="M1103 631q-1 -74 -13 -151.5t-37.5 -150t-64.5 -136t-92.5 -111t-123.5 -75t-157 -27.5q-86 0 -156 27.5t-124.5 75t-94 111.5t-65 136.5t-38 149.5t-13.5 151v192q1 74 13.5 151.5t37.5 150t64.5 136.5t93.5 112t123.5 75.5t156.5 27.5t157 -27.5t124.5 -75t93.5 -111.5 t64.5 -136.5t37.5 -150t13 -152.5v-192zM985 825q-1 58 -9 121t-26 123t-46.5 114.5t-69.5 95.5t-96 65t-125 24t-124.5 -24.5t-95.5 -65.5t-69.5 -95.5t-46.5 -114.5t-26 -123t-9 -120v-194q1 -58 9.5 -120.5t26.5 -123t46.5 -115t69.5 -95.5t96 -65.5t125 -24.5 q71 0 125.5 24.5t95.5 65.5t69.5 95.5t46 115t25 123t8.5 120.5v194zM915 1858q-2 -59 -23.5 -106.5t-59.5 -81t-90 -51.5t-115 -18t-115.5 18t-91 51.5t-60 81t-23.5 106.5h102q3 -80 51.5 -125.5t136.5 -45.5q85 0 133.5 46t52.5 125h102z" />
<glyph unicode="&#x14f;" d="M131 557q1 110 34 209t94.5 173.5t151 118.5t202.5 44q114 0 203.5 -44t151.5 -118.5t95 -173.5t34 -209v-33q-1 -110 -33.5 -209t-94.5 -173.5t-151 -118t-203 -43.5t-203.5 43.5t-151.5 118t-95 173.5t-34 209v33zM251 524q0 -86 24 -166t70 -141.5t113.5 -98.5 t156.5 -37q88 0 155.5 37t113 98.5t69.5 141.5t24 166v33q0 85 -24 165t-70 141.5t-114 99t-156 37.5t-155.5 -37.5t-113 -99t-69.5 -141.5t-24 -165v-33zM903 1515q-2 -59 -23.5 -106.5t-59.5 -81t-90 -51.5t-115 -18t-115.5 18t-91 51.5t-60 81t-23.5 106.5h102 q3 -80 51.5 -125.5t136.5 -45.5q85 0 133.5 46t52.5 125h102z" />
<glyph unicode="&#x150;" d="M1103 631q-1 -74 -13 -151.5t-37.5 -150t-64.5 -136t-92.5 -111t-123.5 -75t-157 -27.5q-86 0 -156 27.5t-124.5 75t-94 111.5t-65 136.5t-38 149.5t-13.5 151v192q1 74 13.5 151.5t37.5 150t64.5 136.5t93.5 112t123.5 75.5t156.5 27.5t157 -27.5t124.5 -75t93.5 -111.5 t64.5 -136.5t37.5 -150t13 -152.5v-192zM985 825q-1 58 -9 121t-26 123t-46.5 114.5t-69.5 95.5t-96 65t-125 24t-124.5 -24.5t-95.5 -65.5t-69.5 -95.5t-46.5 -114.5t-26 -123t-9 -120v-194q1 -58 9.5 -120.5t26.5 -123t46.5 -115t69.5 -95.5t96 -65.5t125 -24.5 q71 0 125.5 24.5t95.5 65.5t69.5 95.5t46 115t25 123t8.5 120.5v194zM922 1881h154l-301 -287h-121zM617 1881h142l-247 -287h-110z" />
<glyph unicode="&#x151;" d="M131 557q1 110 34 209t94.5 173.5t151 118.5t202.5 44q114 0 203.5 -44t151.5 -118.5t95 -173.5t34 -209v-33q-1 -110 -33.5 -209t-94.5 -173.5t-151 -118t-203 -43.5t-203.5 43.5t-151.5 118t-95 173.5t-34 209v33zM251 524q0 -86 24 -166t70 -141.5t113.5 -98.5 t156.5 -37q88 0 155.5 37t113 98.5t69.5 141.5t24 166v33q0 85 -24 165t-70 141.5t-114 99t-156 37.5t-155.5 -37.5t-113 -99t-69.5 -141.5t-24 -165v-33zM910 1538h154l-301 -287h-121zM605 1538h142l-247 -287h-110z" />
<glyph unicode="&#x152;" d="M1191 0h-458q-59 -6 -119.5 -11t-123.5 -4q-110 1 -188.5 48.5t-128.5 125.5t-73.5 177.5t-23.5 203.5v375q0 104 23.5 203.5t73 177.5t127.5 125.5t188 48.5q63 1 124.5 -3t120.5 -11h453v-102h-440v-553h381v-102h-381v-598h445v-101zM490 86q35 -1 69.5 0t69.5 4v1274 q-35 3 -70 4t-70 1q-86 -1 -142 -39.5t-90 -101t-48 -143.5t-14 -168v-377q0 -87 14.5 -168.5t48.5 -144.5t90.5 -101.5t141.5 -39.5z" />
<glyph unicode="&#x153;" d="M27 630q0 86 19 170.5t59.5 151.5t104 108.5t153.5 41.5q52 0 95 -14t77.5 -39.5t61 -60.5t46.5 -77q19 42 45 77t59 60.5t72 39.5t86 14q83 0 141 -34.5t94.5 -92t53.5 -132t17 -154.5l-2 -162h-503v-91q0 -60 11 -123t36 -114.5t66 -84.5t101 -33q38 0 70 8t58.5 20.5 t48.5 29t40 32.5l41 -82q-21 -21 -47 -41t-57.5 -35t-70 -24t-83.5 -9q-101 1 -169.5 53t-107.5 134q-20 -41 -46.5 -75.5t-61 -59.5t-77 -38.5t-93.5 -13.5q-91 0 -155 41t-104.5 108t-59.5 151t-19 171v179zM147 451q0 -63 10 -128.5t35 -119.5t67 -88t106 -34 q63 0 104 34.5t66 88t35.5 119t10.5 128.5v179q0 62 -10.5 127.5t-35.5 119.5t-67 88.5t-105 34.5t-104.5 -34.5t-66 -88.5t-35 -119.5t-10.5 -127.5v-179zM706 628h387v83q1 45 -8 96t-31 93.5t-58.5 71t-90.5 28.5q-57 0 -95 -34t-61 -87.5t-33 -117.5t-10 -124v-9z" />
<glyph unicode="&#x154;" d="M682 609h-360v-609h-118v1456h411q96 -2 181 -31t148.5 -83.5t100 -133.5t36.5 -181q0 -73 -21.5 -133t-59.5 -108.5t-90.5 -85.5t-115.5 -63l332 -624v-13h-125zM322 710h317q68 2 127 26t102.5 65.5t68 99.5t24.5 127q0 77 -27 137t-73.5 101.5t-110 63.5t-136.5 24 h-292v-644zM712 1823h145l-230 -266h-99z" />
<glyph unicode="&#x155;" d="M909 1102q45 0 90 -5.5t75 -15.5l-15 -115q-42 9 -84 14t-86 5q-152 0 -258 -72t-149 -221l1 -692h-124v1082h115l8 -188v-22q66 107 175 168.5t252 61.5zM706 1507h145l-230 -266h-99z" />
<glyph unicode="&#x156;" d="M682 609h-360v-609h-118v1456h411q96 -2 181 -31t148.5 -83.5t100 -133.5t36.5 -181q0 -73 -21.5 -133t-59.5 -108.5t-90.5 -85.5t-115.5 -63l332 -624v-13h-125zM322 710h317q68 2 127 26t102.5 65.5t68 99.5t24.5 127q0 77 -27 137t-73.5 101.5t-110 63.5t-136.5 24 h-292v-644zM635 -142q-1 -76 -28.5 -153t-87.5 -136l-71 52q35 55 53 111.5t19 123.5v76h115v-74z" />
<glyph unicode="&#x157;" d="M909 1102q45 0 90 -5.5t75 -15.5l-15 -115q-42 9 -84 14t-86 5q-152 0 -258 -72t-149 -221l1 -692h-124v1082h115l8 -188v-22q66 107 175 168.5t252 61.5zM485 -138q-1 -76 -28.5 -153t-87.5 -136l-71 52q35 55 53 111.5t19 123.5v76h115v-74z" />
<glyph unicode="&#x158;" d="M682 609h-360v-609h-118v1456h411q96 -2 181 -31t148.5 -83.5t100 -133.5t36.5 -181q0 -73 -21.5 -133t-59.5 -108.5t-90.5 -85.5t-115.5 -63l332 -624v-13h-125zM322 710h317q68 2 127 26t102.5 65.5t68 99.5t24.5 127q0 77 -27 137t-73.5 101.5t-110 63.5t-136.5 24 h-292v-644zM589 1661l173 185h106v-15l-236 -249h-86l-236 248v16h107z" />
<glyph unicode="&#x159;" d="M909 1102q45 0 90 -5.5t75 -15.5l-15 -115q-42 9 -84 14t-86 5q-152 0 -258 -72t-149 -221l1 -692h-124v1082h115l8 -188v-22q66 107 175 168.5t252 61.5zM583 1345l173 185h106v-15l-236 -249h-86l-236 248v16h107z" />
<glyph unicode="&#x15a;" d="M990 358q0 51 -15.5 91.5t-43 72.5t-63.5 56.5t-77 43.5t-84 34t-83 28q-51 16 -103.5 35.5t-102 45t-93 58t-76 73.5t-51 91.5t-18.5 112.5q0 91 40.5 161t105.5 118t146.5 72.5t164.5 24.5q93 0 177 -30.5t147.5 -85.5t101.5 -133.5t41 -174.5h-121q-8 71 -35 129.5 t-72 100.5t-105.5 65.5t-133.5 23.5q-61 0 -120.5 -16.5t-107 -50t-77 -84t-29.5 -118.5q0 -73 34.5 -124t87.5 -86t116.5 -58.5t120.5 -40.5q53 -16 107 -36.5t104.5 -47.5t94.5 -60.5t76.5 -76.5t51 -95.5t18.5 -116.5q0 -96 -41.5 -167t-107.5 -118.5t-150 -71 t-170 -23.5q-96 0 -186 28t-160.5 82t-114.5 133.5t-47 181.5h121q9 -78 41.5 -138.5t83.5 -101t118 -61t144 -20.5q64 0 125.5 16t110.5 49.5t79 85t30 123.5zM753 1850h145l-230 -266h-99z" />
<glyph unicode="&#x15b;" d="M948 275q0 50 -25 87t-68.5 63.5t-100.5 44.5t-121 31q-78 16 -151 38.5t-130 57.5t-91 85.5t-34 124.5q0 70 35 125t92 93t130 57.5t150 19.5q88 0 164.5 -21.5t134 -63t91.5 -101.5t37 -137h-120q-2 52 -28 93.5t-69 69.5t-97.5 43t-112.5 15q-54 0 -105.5 -11.5 t-92 -35t-65 -59t-24.5 -83.5q-1 -51 23.5 -85.5t66.5 -58t98.5 -39t120.5 -28.5q82 -17 156.5 -41.5t131.5 -61t90 -89.5t33 -127q0 -76 -36.5 -132.5t-96 -94t-136 -56t-157.5 -18.5q-91 0 -171.5 22t-142 63.5t-98.5 101.5t-40 136h120q6 -64 38.5 -107t80 -68.5 t103.5 -36t110 -10.5q55 0 109.5 11.5t98 35t71 60t28.5 87.5zM762 1507h145l-230 -266h-99z" />
<glyph unicode="&#x15c;" d="M990 358q0 51 -15.5 91.5t-43 72.5t-63.5 56.5t-77 43.5t-84 34t-83 28q-51 16 -103.5 35.5t-102 45t-93 58t-76 73.5t-51 91.5t-18.5 112.5q0 91 40.5 161t105.5 118t146.5 72.5t164.5 24.5q93 0 177 -30.5t147.5 -85.5t101.5 -133.5t41 -174.5h-121q-8 71 -35 129.5 t-72 100.5t-105.5 65.5t-133.5 23.5q-61 0 -120.5 -16.5t-107 -50t-77 -84t-29.5 -118.5q0 -73 34.5 -124t87.5 -86t116.5 -58.5t120.5 -40.5q53 -16 107 -36.5t104.5 -47.5t94.5 -60.5t76.5 -76.5t51 -95.5t18.5 -116.5q0 -96 -41.5 -167t-107.5 -118.5t-150 -71 t-170 -23.5q-96 0 -186 28t-160.5 82t-114.5 133.5t-47 181.5h121q9 -78 41.5 -138.5t83.5 -101t118 -61t144 -20.5q64 0 125.5 16t110.5 49.5t79 85t30 123.5zM910 1629v-17h-111l-169 174l-167 -174h-108v20l238 239h76z" />
<glyph unicode="&#x15d;" d="M948 275q0 50 -25 87t-68.5 63.5t-100.5 44.5t-121 31q-78 16 -151 38.5t-130 57.5t-91 85.5t-34 124.5q0 70 35 125t92 93t130 57.5t150 19.5q88 0 164.5 -21.5t134 -63t91.5 -101.5t37 -137h-120q-2 52 -28 93.5t-69 69.5t-97.5 43t-112.5 15q-54 0 -105.5 -11.5 t-92 -35t-65 -59t-24.5 -83.5q-1 -51 23.5 -85.5t66.5 -58t98.5 -39t120.5 -28.5q82 -17 156.5 -41.5t131.5 -61t90 -89.5t33 -127q0 -76 -36.5 -132.5t-96 -94t-136 -56t-157.5 -18.5q-91 0 -171.5 22t-142 63.5t-98.5 101.5t-40 136h120q6 -64 38.5 -107t80 -68.5 t103.5 -36t110 -10.5q55 0 109.5 11.5t98 35t71 60t28.5 87.5zM919 1286v-17h-111l-169 174l-167 -174h-108v20l238 239h76z" />
<glyph unicode="&#x15e;" d="M990 358q0 51 -15.5 91.5t-43 72.5t-63.5 56.5t-77 43.5t-84 34t-83 28q-51 16 -103.5 35.5t-102 45t-93 58t-76 73.5t-51 91.5t-18.5 112.5q0 91 40.5 161t105.5 118t146.5 72.5t164.5 24.5q93 0 177 -30.5t147.5 -85.5t101.5 -133.5t41 -174.5h-121q-8 71 -35 129.5 t-72 100.5t-105.5 65.5t-133.5 23.5q-61 0 -120.5 -16.5t-107 -50t-77 -84t-29.5 -118.5q0 -73 34.5 -124t87.5 -86t116.5 -58.5t120.5 -40.5q53 -16 107 -36.5t104.5 -47.5t94.5 -60.5t76.5 -76.5t51 -95.5t18.5 -116.5q0 -96 -41.5 -167t-107.5 -118.5t-150 -71 t-170 -23.5q-96 0 -186 28t-160.5 82t-114.5 133.5t-47 181.5h121q9 -78 41.5 -138.5t83.5 -101t118 -61t144 -20.5q64 0 125.5 16t110.5 49.5t79 85t30 123.5zM690 -9l-12 -64q33 -5 62.5 -17t52.5 -32t36.5 -50t13.5 -72q0 -52 -24 -89t-64.5 -61.5t-94 -36.5t-111.5 -13 l-7 78q33 0 69 6t65 19.5t48.5 36.5t19.5 58q0 32 -14 52t-38.5 31.5t-56.5 17t-66 9.5l28 127h93z" />
<glyph unicode="&#x15f;" d="M948 275q0 50 -25 87t-68.5 63.5t-100.5 44.5t-121 31q-78 16 -151 38.5t-130 57.5t-91 85.5t-34 124.5q0 70 35 125t92 93t130 57.5t150 19.5q88 0 164.5 -21.5t134 -63t91.5 -101.5t37 -137h-120q-2 52 -28 93.5t-69 69.5t-97.5 43t-112.5 15q-54 0 -105.5 -11.5 t-92 -35t-65 -59t-24.5 -83.5q-1 -51 23.5 -85.5t66.5 -58t98.5 -39t120.5 -28.5q82 -17 156.5 -41.5t131.5 -61t90 -89.5t33 -127q0 -76 -36.5 -132.5t-96 -94t-136 -56t-157.5 -18.5q-91 0 -171.5 22t-142 63.5t-98.5 101.5t-40 136h120q6 -64 38.5 -107t80 -68.5 t103.5 -36t110 -10.5q55 0 109.5 11.5t98 35t71 60t28.5 87.5zM677 -6l-12 -64q33 -5 62.5 -17t52.5 -32t36.5 -50t13.5 -72q0 -52 -24 -89t-64.5 -61.5t-94 -36.5t-111.5 -13l-7 78q33 0 69 6t65 19.5t48.5 36.5t19.5 58q0 32 -14 52t-38.5 31.5t-56.5 17t-66 9.5l28 127 h93z" />
<glyph unicode="&#x160;" d="M990 358q0 51 -15.5 91.5t-43 72.5t-63.5 56.5t-77 43.5t-84 34t-83 28q-51 16 -103.5 35.5t-102 45t-93 58t-76 73.5t-51 91.5t-18.5 112.5q0 91 40.5 161t105.5 118t146.5 72.5t164.5 24.5q93 0 177 -30.5t147.5 -85.5t101.5 -133.5t41 -174.5h-121q-8 71 -35 129.5 t-72 100.5t-105.5 65.5t-133.5 23.5q-61 0 -120.5 -16.5t-107 -50t-77 -84t-29.5 -118.5q0 -73 34.5 -124t87.5 -86t116.5 -58.5t120.5 -40.5q53 -16 107 -36.5t104.5 -47.5t94.5 -60.5t76.5 -76.5t51 -95.5t18.5 -116.5q0 -96 -41.5 -167t-107.5 -118.5t-150 -71 t-170 -23.5q-96 0 -186 28t-160.5 82t-114.5 133.5t-47 181.5h121q9 -78 41.5 -138.5t83.5 -101t118 -61t144 -20.5q64 0 125.5 16t110.5 49.5t79 85t30 123.5zM629 1688l173 185h106v-15l-236 -249h-86l-236 248v16h107z" />
<glyph unicode="&#x161;" d="M948 275q0 50 -25 87t-68.5 63.5t-100.5 44.5t-121 31q-78 16 -151 38.5t-130 57.5t-91 85.5t-34 124.5q0 70 35 125t92 93t130 57.5t150 19.5q88 0 164.5 -21.5t134 -63t91.5 -101.5t37 -137h-120q-2 52 -28 93.5t-69 69.5t-97.5 43t-112.5 15q-54 0 -105.5 -11.5 t-92 -35t-65 -59t-24.5 -83.5q-1 -51 23.5 -85.5t66.5 -58t98.5 -39t120.5 -28.5q82 -17 156.5 -41.5t131.5 -61t90 -89.5t33 -127q0 -76 -36.5 -132.5t-96 -94t-136 -56t-157.5 -18.5q-91 0 -171.5 22t-142 63.5t-98.5 101.5t-40 136h120q6 -64 38.5 -107t80 -68.5 t103.5 -36t110 -10.5q55 0 109.5 11.5t98 35t71 60t28.5 87.5zM638 1345l173 185h106v-15l-236 -249h-86l-236 248v16h107z" />
<glyph unicode="&#x162;" d="M1139 1351h-464v-1351h-117l1 1351h-465v105h1045v-105zM668 0l-12 -64q33 -5 62.5 -17t52.5 -32t36.5 -50t13.5 -72q0 -52 -24 -89t-64.5 -61.5t-94 -36.5t-111.5 -13l-7 78q33 0 69 6t65 19.5t48.5 36.5t19.5 58q0 32 -14 52t-38.5 31.5t-56.5 17t-66 9.5l28 127h93z " />
<glyph unicode="&#x163;" d="M592 1359v-277h401v-98h-401v-681q1 -63 19.5 -104.5t50 -67t74 -36.5t92.5 -11t102.5 7t89.5 14l18 -91q-43 -17 -105 -25.5t-126 -8.5q-72 0 -133 17.5t-106 56t-71 100t-27 150.5v680h-301v98h301v277h122zM807 0l-12 -64q33 -5 62.5 -17t52.5 -32t36.5 -50t13.5 -72 q0 -52 -24 -89t-64.5 -61.5t-94 -36.5t-111.5 -13l-7 78q33 0 69 6t65 19.5t48.5 36.5t19.5 58q0 32 -14 52t-38.5 31.5t-56.5 17t-66 9.5l28 127h93z" />
<glyph unicode="&#x164;" d="M1139 1351h-464v-1351h-117l1 1351h-465v105h1045v-105zM621 1657l173 185h106v-15l-236 -249h-86l-236 248v16h107z" />
<glyph unicode="&#x165;" horiz-adv-x="1269" d="M592 1359v-277h401v-98h-401v-681q1 -63 19.5 -104.5t50 -67t74 -36.5t92.5 -11t102.5 7t89.5 14l18 -91q-43 -17 -105 -25.5t-126 -8.5q-72 0 -133 17.5t-106 56t-71 100t-27 150.5v680h-301v98h301v277h122zM1067 1511q0 -44 -9.5 -88.5t-27 -87t-43.5 -82t-60 -72.5 l-69 52q45 63 67.5 130t23.5 146v126h118v-124z" />
<glyph unicode="&#x166;" d="M912 834h-237v-834h-117v834h-258v102h258l1 415h-465v105h1045v-105h-464v-415h237v-102z" />
<glyph unicode="&#x167;" d="M592 1359v-277h401v-98h-401v-265h261v-102h-261v-314q1 -63 19.5 -104.5t50 -67t74 -36.5t92.5 -11t102.5 7t89.5 14l18 -91q-43 -17 -105 -25.5t-126 -8.5q-72 0 -133 17.5t-106 56t-71 100t-27 150.5v313h-229v102h229v265h-301v98h301v277h122z" />
<glyph unicode="&#x168;" d="M1071 1456l1 -987q-2 -99 -34.5 -188t-91.5 -155.5t-143 -106t-188 -39.5q-105 0 -189 39t-143 106t-92 156t-34 188l2 987h113l3 -987q1 -75 24 -144.5t66 -123t106 -85.5t144 -32t143.5 32t105 85.5t65 123t24.5 144.5l2 987h116zM962 1818q-2 -41 -15.5 -78t-38 -65 t-58.5 -44.5t-77 -16.5q-47 0 -80.5 17t-63.5 38t-61 38t-72 17q-51 -1 -79 -35t-31 -84l-79 13q1 40 14.5 77t38 65t59 44.5t77.5 16.5q42 0 75.5 -17.5t65 -38t64 -37.5t72.5 -17q25 0 45 10t34 26.5t21.5 38.5t9.5 47z" />
<glyph unicode="&#x169;" d="M919 169q-54 -89 -142.5 -139t-209.5 -50q-90 0 -158.5 29t-115 85t-71 137t-24.5 185v666h119v-668q2 -163 66 -247t198 -84q135 0 219 62t117 168l-1 769h121v-1082h-112zM924 1494q-2 -41 -15.5 -78t-38 -65t-58.5 -44.5t-77 -16.5q-47 0 -80.5 17t-63.5 38t-61 38 t-72 17q-51 -1 -79 -35t-31 -84l-79 13q1 40 14.5 77t38 65t59 44.5t77.5 16.5q42 0 75.5 -17.5t65 -38t64 -37.5t72.5 -17q25 0 45 10t34 26.5t21.5 38.5t9.5 47z" />
<glyph unicode="&#x16a;" d="M1071 1456l1 -987q-2 -99 -34.5 -188t-91.5 -155.5t-143 -106t-188 -39.5q-105 0 -189 39t-143 106t-92 156t-34 188l2 987h113l3 -987q1 -75 24 -144.5t66 -123t106 -85.5t144 -32t143.5 32t105 85.5t65 123t24.5 144.5l2 987h116zM967 1683h-670v97h670v-97z" />
<glyph unicode="&#x16b;" d="M919 169q-54 -89 -142.5 -139t-209.5 -50q-90 0 -158.5 29t-115 85t-71 137t-24.5 185v666h119v-668q2 -163 66 -247t198 -84q135 0 219 62t117 168l-1 769h121v-1082h-112zM930 1359h-670v97h670v-97z" />
<glyph unicode="&#x16c;" d="M1071 1456l1 -987q-2 -99 -34.5 -188t-91.5 -155.5t-143 -106t-188 -39.5q-105 0 -189 39t-143 106t-92 156t-34 188l2 987h113l3 -987q1 -75 24 -144.5t66 -123t106 -85.5t144 -32t143.5 32t105 85.5t65 123t24.5 144.5l2 987h116zM924 1831q-2 -59 -23.5 -106.5 t-59.5 -81t-90 -51.5t-115 -18t-115.5 18t-91 51.5t-60 81t-23.5 106.5h102q3 -80 51.5 -125.5t136.5 -45.5q85 0 133.5 46t52.5 125h102z" />
<glyph unicode="&#x16d;" d="M919 169q-54 -89 -142.5 -139t-209.5 -50q-90 0 -158.5 29t-115 85t-71 137t-24.5 185v666h119v-668q2 -163 66 -247t198 -84q135 0 219 62t117 168l-1 769h121v-1082h-112zM887 1507q-2 -59 -23.5 -106.5t-59.5 -81t-90 -51.5t-115 -18t-115.5 18t-91 51.5t-60 81 t-23.5 106.5h102q3 -80 51.5 -125.5t136.5 -45.5q85 0 133.5 46t52.5 125h102z" />
<glyph unicode="&#x16e;" d="M1071 1456l1 -987q-2 -99 -34.5 -188t-91.5 -155.5t-143 -106t-188 -39.5q-105 0 -189 39t-143 106t-92 156t-34 188l2 987h113l3 -987q1 -75 24 -144.5t66 -123t106 -85.5t144 -32t143.5 32t105 85.5t65 123t24.5 144.5l2 987h116zM451 1711q0 38 14.5 72t39 59.5t58 40 t72.5 14.5q38 0 71.5 -14.5t58 -40t39 -59.5t14.5 -72q0 -39 -14.5 -72t-39 -57.5t-58 -38.5t-71.5 -14q-39 0 -72.5 14t-58 38.5t-39 57.5t-14.5 72zM527 1711q0 -23 8.5 -43t23 -35t34 -24t42.5 -9t42.5 9t33.5 24t22 35t8 43t-8 44t-22 36.5t-33.5 24.5t-42.5 9t-43 -9 t-34.5 -24.5t-22.5 -36.5t-8 -44z" />
<glyph unicode="&#x16f;" d="M919 169q-54 -89 -142.5 -139t-209.5 -50q-90 0 -158.5 29t-115 85t-71 137t-24.5 185v666h119v-668q2 -163 66 -247t198 -84q135 0 219 62t117 168l-1 769h121v-1082h-112zM414 1387q0 38 14.5 72t39 59.5t58 40t72.5 14.5q38 0 71.5 -14.5t58 -40t39 -59.5t14.5 -72 q0 -39 -14.5 -72t-39 -57.5t-58 -38.5t-71.5 -14q-39 0 -72.5 14t-58 38.5t-39 57.5t-14.5 72zM490 1387q0 -23 8.5 -43t23 -35t34 -24t42.5 -9t42.5 9t33.5 24t22 35t8 43t-8 44t-22 36.5t-33.5 24.5t-42.5 9t-43 -9t-34.5 -24.5t-22.5 -36.5t-8 -44z" />
<glyph unicode="&#x170;" d="M1071 1456l1 -987q-2 -99 -34.5 -188t-91.5 -155.5t-143 -106t-188 -39.5q-105 0 -189 39t-143 106t-92 156t-34 188l2 987h113l3 -987q1 -75 24 -144.5t66 -123t106 -85.5t144 -32t143.5 32t105 85.5t65 123t24.5 144.5l2 987h116zM931 1854h154l-301 -287h-121z M626 1854h142l-247 -287h-110z" />
<glyph unicode="&#x171;" d="M919 169q-54 -89 -142.5 -139t-209.5 -50q-90 0 -158.5 29t-115 85t-71 137t-24.5 185v666h119v-668q2 -163 66 -247t198 -84q135 0 219 62t117 168l-1 769h121v-1082h-112zM893 1530h154l-301 -287h-121zM588 1530h142l-247 -287h-110z" />
<glyph unicode="&#x172;" d="M1071 1456l1 -987q-1 -73 -19 -140.5t-51.5 -125t-80.5 -103.5t-107 -76q-31 -20 -60.5 -43.5t-52 -50.5t-36 -57.5t-13.5 -64.5q1 -40 23.5 -62.5t65.5 -23.5q32 -1 60 9t49 24l23 -84q-29 -19 -66.5 -31.5t-88.5 -12.5q-37 0 -68.5 11t-55 33t-36.5 53t-13 72 q0 51 27 97.5t69 87.5q-6 0 -12.5 -0.5t-13.5 -0.5q-105 0 -189 39t-143 106t-92 156t-34 188l2 987h113l3 -987q1 -75 24 -144.5t66 -123t106 -85.5t144 -32t143.5 32t105 85.5t65 123t24.5 144.5l2 987h116z" />
<glyph unicode="&#x173;" d="M1036 0q-34 -21 -67.5 -46t-59.5 -54t-42.5 -62t-16.5 -70q1 -40 23.5 -62.5t65.5 -23.5q32 -1 60 9t49 24l23 -84q-29 -19 -66.5 -31.5t-88.5 -12.5q-37 0 -68.5 11t-55 33t-36.5 53t-13 72q0 36 14.5 71t39.5 67.5t58 61.5t69 53l-5 160q-54 -89 -142.5 -139 t-209.5 -50q-90 0 -158.5 29t-115 85t-71 137t-24.5 185v666h119v-668q2 -163 66 -247t198 -84q135 0 219 62t117 168l-1 769h121v-1082h-1z" />
<glyph unicode="&#x174;" d="M348 330l8 -102l12 102l212 1126h104l212 -1126l12 -105l9 105l149 1126h112l-205 -1456h-119l-222 1214l-223 -1214h-119l-205 1456h113zM906 1608v-17h-111l-169 174l-167 -174h-108v20l238 239h76z" />
<glyph unicode="&#x175;" d="M324 351l32 -192l40 192l183 731h84l183 -731l40 -197l35 197l148 731h111l-240 -1082h-97l-191 740l-32 173l-32 -173l-189 -740h-97l-240 1082h111zM902 1278v-17h-111l-169 174l-167 -174h-108v20l238 239h76z" />
<glyph unicode="&#x176;" d="M600 662l389 794h136l-467 -908l-2 -548h-112l-2 548l-467 908h139zM881 1601v-17h-111l-169 174l-167 -174h-108v20l238 239h76z" />
<glyph unicode="&#x177;" d="M600 220l22 -59l391 921h136l-559 -1255q-22 -49 -52 -96t-71 -84.5t-94.5 -60.5t-122.5 -23q-24 0 -53 4.5t-49 9.5l14 100q17 -2 42.5 -4.5t42.5 -2.5q46 0 84 18t67.5 46.5t52 64t37.5 69.5l74 160l-486 1054h135zM911 1278v-17h-111l-169 174l-167 -174h-108v20 l238 239h76z" />
<glyph unicode="&#x178;" d="M600 662l389 794h136l-467 -908l-2 -548h-112l-2 548l-467 908h139zM295 1722q0 33 22 57t60 24t60.5 -24t22.5 -57q0 -32 -22.5 -55.5t-60.5 -23.5t-60 23.5t-22 55.5zM733 1721q0 33 22 57t60 24t60.5 -24t22.5 -57q0 -32 -22.5 -55.5t-60.5 -23.5t-60 23.5t-22 55.5z " />
<glyph unicode="&#x179;" d="M266 104h794v-104h-930l-2 93l765 1258h-741v105h880l1 -88zM746 1823h145l-230 -266h-99z" />
<glyph unicode="&#x17a;" d="M305 101h793v-101h-950l1 88l736 891h-714v103h875l-1 -89zM769 1499h145l-230 -266h-99z" />
<glyph unicode="&#x17b;" d="M266 104h794v-104h-930l-2 93l765 1258h-741v105h880l1 -88zM535 1705q0 34 22.5 58.5t63.5 24.5q40 0 63 -24t23 -59t-23 -58.5t-63 -23.5q-41 0 -63.5 23.5t-22.5 58.5z" />
<glyph unicode="&#x17c;" d="M305 101h793v-101h-950l1 88l736 891h-714v103h875l-1 -89zM558 1381q0 34 22.5 58.5t63.5 24.5q40 0 63 -24t23 -59t-23 -58.5t-63 -23.5q-41 0 -63.5 23.5t-22.5 58.5z" />
<glyph unicode="&#x17d;" d="M266 104h794v-104h-930l-2 93l765 1258h-741v105h880l1 -88zM622 1661l173 185h106v-15l-236 -249h-86l-236 248v16h107z" />
<glyph unicode="&#x17e;" d="M305 101h793v-101h-950l1 88l736 891h-714v103h875l-1 -89zM645 1337l173 185h106v-15l-236 -249h-86l-236 248v16h107z" />
<glyph unicode="&#x17f;" d="M489 0l1 1182q0 92 27.5 163.5t78 120.5t121 75t157.5 26q38 0 74 -5t73 -14l-15 -96q-27 7 -56 10.5t-61 3.5q-130 -1 -203 -76t-75 -208v-1182h-122z" />
<glyph unicode="&#x192;" d="M951 984h-290l-1 -1055q-1 -87 -25.5 -155t-70.5 -115t-110.5 -71.5t-145.5 -24.5q-77 0 -148 28l13 99q13 -6 31 -10.5t37 -8t36.5 -5t30.5 -1.5q53 0 95.5 18t72.5 52.5t46 83t17 110.5v1055h-210v98h211v127q1 87 29.5 154t79.5 112.5t121.5 68.5t156.5 23 q44 0 86 -7.5t85 -19.5l-16 -99q-64 22 -143 22q-63 0 -114.5 -16.5t-87.5 -48.5t-56 -79.5t-21 -109.5l1 -127h290v-98z" />
<glyph unicode="&#x1a0;" d="M1099 631q-1 -74 -13 -151.5t-37.5 -150t-64.5 -136t-92.5 -111t-123.5 -75t-157 -27.5t-156.5 27.5t-124 75t-94 111.5t-65 136.5t-38 149.5t-13.5 151v192q1 74 13.5 151.5t37.5 150t64.5 136.5t93.5 112t123.5 75.5t156.5 27.5q62 0 115.5 -14.5t98.5 -40.5t82 -62.5 t67 -79.5q42 8 69.5 30.5t44 56.5t23.5 77t9 93h109q0 -65 -11.5 -121t-37 -100.5t-65 -75.5t-93.5 -46q40 -85 59 -180.5t20 -189.5v-192zM981 825q-1 58 -9 121t-26 123t-46 114.5t-69.5 95.5t-96.5 65t-125 24t-124.5 -24.5t-95.5 -65.5t-69.5 -95.5t-46.5 -114.5 t-26 -123t-9 -120v-194q1 -58 9.5 -120.5t26.5 -123t46.5 -115t69.5 -95.5t96 -65.5t125 -24.5q71 0 125.5 24.5t95.5 65.5t69.5 95.5t46 115t25 123t8.5 120.5v194z" />
<glyph unicode="&#x1a1;" d="M116 557q1 110 34 209t94.5 173.5t151 118.5t202.5 44q103 0 185 -35.5t143 -97.5q43 4 73 21.5t49 46t27.5 68.5t9.5 90h111q-1 -126 -51 -205t-153 -105q44 -69 66.5 -152.5t23.5 -175.5v-33q-1 -110 -33.5 -209t-94.5 -173.5t-151 -118t-203 -43.5t-203.5 43.5 t-151.5 118t-95 173.5t-34 209v33zM236 524q0 -86 24 -166t70 -141.5t113.5 -98.5t156.5 -37q88 0 155.5 37t113 98.5t69.5 141.5t24 166v33q0 85 -24 165t-70 141.5t-114 99t-156 37.5t-155.5 -37.5t-113 -99t-69.5 -141.5t-24 -165v-33z" />
<glyph unicode="&#x1af;" d="M1071 1456v-195q51 7 84 29t52 57t27 81.5t9 103.5h110q0 -80 -15.5 -144t-49.5 -110.5t-87.5 -75t-129.5 -35.5l1 -698q-2 -99 -34.5 -188t-91.5 -155.5t-143 -106t-188 -39.5q-105 0 -189 39t-143 106t-92 156t-34 188l2 987h113l3 -987q1 -75 24 -144.5t66 -123 t106 -85.5t144 -32t143.5 32t105 85.5t65 123t24.5 144.5l2 987h116z" />
<glyph unicode="&#x1b0;" d="M1305 1181q-2 -152 -65.5 -235t-202.5 -97v-849h-112l-6 169q-54 -89 -142.5 -139t-209.5 -50q-90 0 -158.5 29t-115 85t-71 137t-24.5 185v666h119v-668q2 -163 66 -247t198 -84q135 0 219 62t117 168l-1 769h121v-139q44 7 74 25t48 47.5t26 70.5t9 95h111z" />
<glyph unicode="&#x1f0;" d="M265 1082h532v-1082q0 -102 -27.5 -183t-80 -137.5t-128.5 -86.5t-172 -30q-29 0 -54.5 1t-50.5 3t-50 5t-53 8l9 99q18 -3 44.5 -5.5t53.5 -4t52 -2t40 -0.5q60 0 114 17t94.5 56.5t64.5 103t24 156.5v975h-412v107zM732 1374l173 185h106v-15l-236 -249h-86l-236 248 v16h107z" />
<glyph unicode="&#x1fa;" d="M905 406h-554l-129 -406h-121l474 1456h108l470 -1456h-120zM385 513h486l-242 766zM756 1994h139l-203 -187h-95zM475 1601q0 33 12.5 61t34 48.5t50 32.5t60.5 12q31 0 59 -12t49 -33t33 -49t12 -60t-12 -59.5t-33 -47.5t-49 -31.5t-59 -11.5q-32 0 -60 11.5t-50 31.5 t-34.5 47.5t-12.5 59.5zM543 1601q5 -35 28 -60.5t61 -25.5q18 0 33.5 7t27 18.5t18.5 27t7 33.5t-7 34.5t-18.5 29t-27 19.5t-33.5 7q-39 0 -62 -26.5t-27 -63.5z" />
<glyph unicode="&#x1fb;" d="M937 0q-11 33 -17 73.5t-8 82.5q-31 -38 -72 -70t-89.5 -55.5t-104.5 -37t-117 -13.5q-76 0 -141.5 22t-114 62t-76 96.5t-27.5 126.5q0 93 41 158t111 105.5t162 59.5t193 19h234v123q-1 61 -24 107.5t-62.5 78t-94 47.5t-118.5 16q-58 0 -110.5 -15t-93 -43 t-65.5 -68.5t-27 -91.5l-120 1q3 69 36.5 127t90.5 100.5t132.5 66.5t161.5 24t161.5 -22t131 -66t88 -110t33.5 -154v-524q0 -54 9.5 -109t23.5 -105l1 -12h-128zM542 86q63 -1 120.5 15t105.5 44.5t85 68t58 86.5v237h-218q-79 0 -152 -12t-129 -39.5t-89.5 -73.5 t-33.5 -115q0 -49 20 -88t54 -66.5t80 -42t99 -14.5zM761 1674h139l-203 -187h-95zM480 1281q0 33 12.5 61t34 48.5t50 32.5t60.5 12q31 0 59 -12t49 -33t33 -49t12 -60t-12 -59.5t-33 -47.5t-49 -31.5t-59 -11.5q-32 0 -60 11.5t-50 31.5t-34.5 47.5t-12.5 59.5zM548 1281 q5 -35 28 -60.5t61 -25.5q18 0 33.5 7t27 18.5t18.5 27t7 33.5t-7 34.5t-18.5 29t-27 19.5t-33.5 7q-39 0 -62 -26.5t-27 -63.5z" />
<glyph unicode="&#x1fc;" d="M1171 0h-503l-6 389h-342l-140 -389h-125l552 1456h534v-102h-382l8 -545h332v-102h-330l8 -606h394v-101zM361 502h300l-11 798zM807 1829h145l-230 -266h-99z" />
<glyph unicode="&#x1fd;" d="M894 -20q-110 1 -181.5 48.5t-111.5 124.5q-19 -35 -46.5 -66.5t-62.5 -55t-77.5 -37.5t-91.5 -14q-68 0 -119 23.5t-86 64.5t-53 96.5t-18 119.5q0 77 23.5 141t69.5 110t112.5 71.5t153.5 25.5h131v170q0 37 -7.5 72.5t-26 63t-51.5 45t-85 17.5q-44 0 -79 -14t-59 -39 t-36.5 -59.5t-11.5 -75.5l-116 4q-1 65 20.5 117.5t61.5 90t95.5 58t123.5 20.5q101 0 163 -40t92 -105q39 64 101 104.5t150 40.5q84 0 143 -31.5t96.5 -84t55 -120.5t17.5 -141l-1 -187h-530v-133q0 -59 12 -116.5t41.5 -104t79.5 -75t126 -28.5q39 0 71.5 9t59 23 t47.5 32t39 36l37 -87q-18 -22 -43.5 -42.5t-59 -36.5t-75.5 -25.5t-94 -9.5zM341 80q30 0 59.5 10t55.5 27t47 39t36 46l-1 334h-130q-58 -1 -103.5 -21.5t-76.5 -55.5t-47 -81t-16 -98q0 -40 11 -76t32.5 -64t54.5 -44t78 -16zM653 636h418l-1 109q-2 43 -12 88t-33 82 t-60.5 61t-92.5 24q-65 0 -107 -32t-66.5 -80.5t-35 -107t-10.5 -110.5v-34zM746 1508h145l-230 -266h-99z" />
<glyph unicode="&#x1fe;" d="M1093 631q-1 -74 -13 -151.5t-37.5 -150t-64.5 -136t-92.5 -111t-123.5 -75t-157 -27.5q-91 0 -162.5 29.5t-126.5 80.5l-103 -174h-103l144 244q-36 48 -62 105t-43.5 118t-26 124t-8.5 124v192q1 74 13.5 151.5t37.5 150t64.5 136.5t93.5 112t123.5 75.5t156.5 27.5 q110 0 192 -43t141 -114l110 186h103l-158 -267q52 -93 76 -201t26 -214v-192zM232 631q0 -44 5 -91t15.5 -94t26 -92.5t38.5 -85.5l558 947q-44 68 -110.5 110.5t-161.5 42.5q-70 0 -124.5 -24.5t-95.5 -65.5t-69.5 -95.5t-46.5 -114.5t-26 -123t-9 -120v-194zM975 825 q-1 71 -13 147.5t-40 148.5l-549 -933q42 -46 99.5 -73.5t132.5 -27.5q71 0 125.5 24.5t95.5 65.5t69.5 95.5t46 115t25 123t8.5 120.5v194zM767 1891h145l-230 -266h-99z" />
<glyph unicode="&#x1ff;" d="M131 557q1 110 34 209t94.5 173.5t151 118.5t202.5 44q54 0 102 -10.5t91 -29.5l74 152h93l-94 -192q52 -36 92.5 -86.5t68 -110.5t42 -128t15.5 -140v-33q-1 -110 -33.5 -209t-94.5 -173.5t-151 -118t-203 -43.5q-63 0 -118 13.5t-103 38.5l-84 -172h-93l107 218 q-47 37 -82.5 86t-60 106t-37.5 121.5t-13 132.5v33zM977 557q0 53 -10 105t-28.5 99t-46 88t-63.5 72l-388 -794q75 -46 174 -46q88 0 155.5 37t113 98.5t69.5 141.5t24 166v33zM251 524q0 -100 31.5 -190t91.5 -153l385 786q-32 16 -68.5 24.5t-77.5 8.5 q-88 0 -155.5 -37.5t-113 -99t-69.5 -141.5t-24 -165v-33zM715 1506h145l-230 -266h-99z" />
<glyph unicode="&#x218;" d="M990 358q0 51 -15.5 91.5t-43 72.5t-63.5 56.5t-77 43.5t-84 34t-83 28q-51 16 -103.5 35.5t-102 45t-93 58t-76 73.5t-51 91.5t-18.5 112.5q0 91 40.5 161t105.5 118t146.5 72.5t164.5 24.5q93 0 177 -30.5t147.5 -85.5t101.5 -133.5t41 -174.5h-121q-8 71 -35 129.5 t-72 100.5t-105.5 65.5t-133.5 23.5q-61 0 -120.5 -16.5t-107 -50t-77 -84t-29.5 -118.5q0 -73 34.5 -124t87.5 -86t116.5 -58.5t120.5 -40.5q53 -16 107 -36.5t104.5 -47.5t94.5 -60.5t76.5 -76.5t51 -95.5t18.5 -116.5q0 -96 -41.5 -167t-107.5 -118.5t-150 -71 t-170 -23.5q-96 0 -186 28t-160.5 82t-114.5 133.5t-47 181.5h121q9 -78 41.5 -138.5t83.5 -101t118 -61t144 -20.5q64 0 125.5 16t110.5 49.5t79 85t30 123.5zM705 -162q-1 -76 -28.5 -153t-87.5 -136l-71 52q35 55 53 111.5t19 123.5v76h115v-74z" />
<glyph unicode="&#x219;" d="M948 275q0 50 -25 87t-68.5 63.5t-100.5 44.5t-121 31q-78 16 -151 38.5t-130 57.5t-91 85.5t-34 124.5q0 70 35 125t92 93t130 57.5t150 19.5q88 0 164.5 -21.5t134 -63t91.5 -101.5t37 -137h-120q-2 52 -28 93.5t-69 69.5t-97.5 43t-112.5 15q-54 0 -105.5 -11.5 t-92 -35t-65 -59t-24.5 -83.5q-1 -51 23.5 -85.5t66.5 -58t98.5 -39t120.5 -28.5q82 -17 156.5 -41.5t131.5 -61t90 -89.5t33 -127q0 -76 -36.5 -132.5t-96 -94t-136 -56t-157.5 -18.5q-91 0 -171.5 22t-142 63.5t-98.5 101.5t-40 136h120q6 -64 38.5 -107t80 -68.5 t103.5 -36t110 -10.5q55 0 109.5 11.5t98 35t71 60t28.5 87.5zM692 -159q-1 -76 -28.5 -153t-87.5 -136l-71 52q35 55 53 111.5t19 123.5v76h115v-74z" />
<glyph unicode="&#x21a;" d="M1139 1351h-464v-1351h-117l1 1351h-465v105h1045v-105zM683 -152q-1 -76 -28.5 -153t-87.5 -136l-71 52q35 55 53 111.5t19 123.5v76h115v-74z" />
<glyph unicode="&#x21b;" d="M592 1359v-277h401v-98h-401v-681q1 -63 19.5 -104.5t50 -67t74 -36.5t92.5 -11t102.5 7t89.5 14l18 -91q-43 -17 -105 -25.5t-126 -8.5q-72 0 -133 17.5t-106 56t-71 100t-27 150.5v680h-301v98h301v277h122zM822 -152q-1 -76 -28.5 -153t-87.5 -136l-71 52 q35 55 53 111.5t19 123.5v76h115v-74z" />
<glyph unicode="&#x237;" d="M265 1082h532v-1082q0 -102 -27.5 -183t-80 -137.5t-128.5 -86.5t-172 -30q-29 0 -54.5 1t-50.5 3t-50 5t-53 8l9 99q18 -3 44.5 -5.5t53.5 -4t52 -2t40 -0.5q60 0 114 17t94.5 56.5t64.5 103t24 156.5v975h-412v107z" />
<glyph unicode="&#x259;" d="M613 1102q111 0 201.5 -42.5t154.5 -115t99 -168.5t36 -204v-55q0 -109 -36 -206.5t-99.5 -171t-150.5 -116.5t-190 -43q-107 0 -189.5 35t-139 96.5t-86.5 146t-30 183.5v102h802v29q-1 84 -26.5 161.5t-73 137t-116 95t-156.5 35.5q-107 0 -194 -29.5t-149 -91.5 l-51 83q66 65 164.5 102.5t229.5 36.5zM628 81q73 0 133 29t105 78t73.5 114.5t39.5 138.5h-677v-29q1 -68 23 -128t64 -105t102 -71.5t137 -26.5z" />
<glyph unicode="&#x2bc;" d="M702 1422q0 -44 -9.5 -88.5t-27 -87t-43.5 -82t-60 -72.5l-69 52q45 63 67.5 130t23.5 146v126h118v-124z" />
<glyph unicode="&#x2c6;" d="M844 1275v-17h-111l-169 174l-167 -174h-108v20l238 239h76z" />
<glyph unicode="&#x2c7;" d="M613 1326l173 185h106v-15l-236 -249h-86l-236 248v16h107z" />
<glyph unicode="&#x2d8;" d="M903 1472q-2 -59 -23.5 -106.5t-59.5 -81t-90 -51.5t-115 -18t-115.5 18t-91 51.5t-60 81t-23.5 106.5h102q3 -80 51.5 -125.5t136.5 -45.5q85 0 133.5 46t52.5 125h102z" />
<glyph unicode="&#x2d9;" d="M527 1378q0 34 22.5 58.5t63.5 24.5q40 0 63 -24t23 -59t-23 -58.5t-63 -23.5q-41 0 -63.5 23.5t-22.5 58.5z" />
<glyph unicode="&#x2da;" d="M430 1348q0 38 14.5 72t39 59.5t58 40t72.5 14.5q38 0 71.5 -14.5t58 -40t39 -59.5t14.5 -72q0 -39 -14.5 -72t-39 -57.5t-58 -38.5t-71.5 -14q-39 0 -72.5 14t-58 38.5t-39 57.5t-14.5 72zM506 1348q0 -23 8.5 -43t23 -35t34 -24t42.5 -9t42.5 9t33.5 24t22 35t8 43 t-8 44t-22 36.5t-33.5 24.5t-42.5 9t-43 -9t-34.5 -24.5t-22.5 -36.5t-8 -44z" />
<glyph unicode="&#x2db;" d="M711 0q-34 -21 -67.5 -46t-59.5 -54t-42.5 -62t-16.5 -70q1 -40 23.5 -62.5t65.5 -23.5q32 -1 60 9t49 24l23 -84q-29 -19 -66.5 -31.5t-88.5 -12.5q-37 0 -68.5 11t-55 33t-36.5 53t-13 72q0 42 19.5 82t51 76t72.5 67t84 56z" />
<glyph unicode="&#x2dc;" d="M802 1481q-2 -41 -15.5 -78t-38 -65t-58.5 -44.5t-77 -16.5q-47 0 -80.5 17t-63.5 38t-61 38t-72 17q-51 -1 -79 -35t-31 -84l-79 13q1 40 14.5 77t38 65t59 44.5t77.5 16.5q42 0 75.5 -17.5t65 -38t64 -37.5t72.5 -17q25 0 45 10t34 26.5t21.5 38.5t9.5 47z" />
<glyph unicode="&#x2dd;" d="M797 1527h154l-301 -287h-121zM492 1527h142l-247 -287h-110z" />
<glyph unicode="&#x2f3;" d="M460 -226q0 28 11.5 52.5t30.5 42.5t44 28.5t53 10.5q27 0 52 -10.5t43.5 -28.5t29.5 -42.5t11 -52.5t-11 -52t-29.5 -41t-43.5 -27t-52 -10t-52.5 9.5t-44.5 27t-30.5 41t-11.5 52.5zM532 -226q4 -26 21 -44t46 -18q26 0 45 18t20 44q0 28 -19.5 46.5t-45.5 18.5 q-29 1 -46.5 -18t-20.5 -47z" />
<glyph unicode="&#x300;" horiz-adv-x="553" d="M-556 1228h-99l-185 318h130z" />
<glyph unicode="&#x301;" horiz-adv-x="553" d="M-543 1547h121l-178 -318h-89z" />
<glyph unicode="&#x303;" horiz-adv-x="553" d="M-256 1481q-2 -41 -15.5 -78t-38 -65t-58.5 -44.5t-77 -16.5q-47 0 -80.5 17t-63.5 38t-61 38t-72 17q-51 -1 -79 -35t-31 -84l-79 13q1 40 14.5 77t38 65t59 44.5t77.5 16.5q42 0 75.5 -17.5t65 -38t64 -37.5t72.5 -17q25 0 45 10t34 26.5t21.5 38.5t9.5 47z" />
<glyph unicode="&#x309;" horiz-adv-x="553" d="M-651 1234l-1 125q31 3 61 7.5t53.5 14t38 27t14.5 45.5q0 30 -20.5 48.5t-50.5 29t-65 14t-65 3.5l7 77q54 -1 107 -10.5t94.5 -30t67 -53t25.5 -79.5q0 -40 -15.5 -68t-40.5 -46.5t-56.5 -28t-63.5 -13.5v-62h-90z" />
<glyph unicode="&#x30f;" horiz-adv-x="553" d="M-740 1252h-121l-302 266h153zM-497 1252h-109l-250 266h142z" />
<glyph unicode="&#x323;" horiz-adv-x="553" d="M-770 -226q-1 35 22.5 59t62.5 24t63 -24t24 -59q0 -34 -24 -58t-63 -24t-62 24t-23 58z" />
<glyph unicode="&#x384;" d="M663 1617h131l-143 -329h-73z" />
<glyph unicode="&#x385;" d="M638 1691h141l-80 -252h-96zM334 1391q0 34 22 58.5t61 24.5t62 -24.5t23 -58.5q0 -33 -23 -57.5t-62 -24.5q-38 0 -60.5 24.5t-22.5 57.5zM796 1391q0 34 22 58.5t61 24.5t62 -24.5t23 -58.5q0 -33 -23 -57.5t-62 -24.5q-38 0 -60.5 24.5t-22.5 57.5z" />
<glyph unicode="&#x386;" d="M905 406h-554l-129 -406h-121l474 1456h108l470 -1456h-120zM385 513h486l-242 766zM359 1617h131l-143 -329h-73z" />
<glyph unicode="&#x387;" d="M558 717q0 34 23 58.5t62 24.5t62.5 -24.5t23.5 -58.5t-23.5 -58t-62.5 -24t-62 24t-23 58z" />
<glyph unicode="&#x388;" horiz-adv-x="1329" d="M1062 698h-642v-594h740v-104h-859v1456h855v-105h-736v-549h642v-104zM136 1618h131l-143 -329h-73z" />
<glyph unicode="&#x389;" horiz-adv-x="1329" d="M1169 0h-113v698h-684v-698h-113v1456h113v-654h684v654h113v-1456zM117 1619h131l-143 -329h-73z" />
<glyph unicode="&#x38a;" horiz-adv-x="1329" d="M293 1456h843v-108h-365v-1242h365v-106h-843v106h354v1242h-354v108zM101 1619h131l-143 -329h-73z" />
<glyph unicode="&#x38c;" horiz-adv-x="1249" d="M1123 631q-1 -74 -13 -151.5t-37.5 -150t-64.5 -136t-92.5 -111t-123.5 -75t-157 -27.5q-86 0 -156 27.5t-124.5 75t-94 111.5t-65 136.5t-38 149.5t-13.5 151v192q1 74 13.5 151.5t37.5 150t64.5 136.5t93.5 112t123.5 75.5t156.5 27.5t157 -27.5t124.5 -75t93.5 -111.5 t64.5 -136.5t37.5 -150t13 -152.5v-192zM1005 825q-1 58 -9 121t-26 123t-46.5 114.5t-69.5 95.5t-96 65t-125 24t-124.5 -24.5t-95.5 -65.5t-69.5 -95.5t-46.5 -114.5t-26 -123t-9 -120v-194q1 -58 9.5 -120.5t26.5 -123t46.5 -115t69.5 -95.5t96 -65.5t125 -24.5 q71 0 125.5 24.5t95.5 65.5t69.5 95.5t46 115t25 123t8.5 120.5v194zM111 1617h131l-143 -329h-73z" />
<glyph unicode="&#x38e;" horiz-adv-x="1329" d="M700 662l389 794h136l-467 -908l-2 -548h-112l-2 548l-467 908h139zM38 1617h131l-143 -329h-73z" />
<glyph unicode="&#x38f;" horiz-adv-x="1249" d="M714 134q77 32 133 90t92.5 136.5t54.5 176t18 208.5v101q0 106 -24 202t-71.5 168.5t-118.5 115t-167 42.5q-95 0 -165.5 -43t-117.5 -115.5t-71 -168t-24 -201.5v-101q0 -112 18.5 -209.5t56 -176t94.5 -136t135 -89.5v-134h-429v101h305q-74 48 -130 119t-93.5 156 t-57 179.5t-19.5 189.5v99q0 124 32.5 238t95.5 201.5t155.5 140t214.5 52.5t215 -52.5t156.5 -140t96 -201.5t32.5 -238v-99q0 -95 -19 -189.5t-56.5 -179.5t-93 -156t-128.5 -119h308v-101h-428v134zM106 1617h131l-143 -329h-73z" />
<glyph unicode="&#x390;" d="M207 1082h456l1 -792q-1 -64 16.5 -104.5t47.5 -64t70.5 -32.5t85.5 -9q42 0 81 9.5t73 20.5l25 -87q-52 -26 -101 -34.5t-101 -8.5q-72 0 -130 16t-100 52.5t-65 96.5t-24 149l-2 681h-333v107zM574 1646h141l-80 -252h-96zM270 1346q0 34 22 58.5t61 24.5t62 -24.5 t23 -58.5q0 -33 -23 -57.5t-62 -24.5q-38 0 -60.5 24.5t-22.5 57.5zM732 1346q0 34 22 58.5t61 24.5t62 -24.5t23 -58.5q0 -33 -23 -57.5t-62 -24.5q-38 0 -60.5 24.5t-22.5 57.5z" />
<glyph unicode="&#x391;" d="M905 406h-554l-129 -406h-121l474 1456h108l470 -1456h-120zM385 513h486l-242 766z" />
<glyph unicode="&#x392;" d="M194 0v1456h398q88 -1 171.5 -23.5t148.5 -69t104.5 -118t38.5 -170.5q0 -62 -19 -111.5t-51.5 -88t-76.5 -67t-95 -47.5q63 -15 116.5 -46t92.5 -76.5t61.5 -103.5t22.5 -125q1 -97 -36 -172.5t-100 -128t-145.5 -80.5t-172.5 -29h-458zM314 700v-596h341q66 1 126 22.5 t105.5 60.5t72 94.5t26.5 126.5q0 69 -25.5 122.5t-70 90.5t-103 57t-122.5 22h-350zM314 803h293q63 1 122 18t104.5 51t73.5 85t28 121q0 73 -29 124.5t-77 84t-109 48t-125 16.5h-281v-548z" />
<glyph unicode="&#x393;" d="M1064 1354h-754v-1354h-120v1456h874v-102z" />
<glyph unicode="&#x395;" d="M962 698h-642v-594h740v-104h-859v1456h855v-105h-736v-549h642v-104z" />
<glyph unicode="&#x396;" d="M266 104h794v-104h-930l-2 93l765 1258h-741v105h880l1 -88z" />
<glyph unicode="&#x397;" d="M1069 0h-113v698h-684v-698h-113v1456h113v-654h684v654h113v-1456z" />
<glyph unicode="&#x398;" d="M850 676h-488v101h488v-101zM1103 631q-1 -74 -13 -151.5t-37.5 -150t-64.5 -136t-92.5 -111t-123.5 -75t-157 -27.5q-86 0 -156 27.5t-124.5 75t-94 111.5t-65 136.5t-38 149.5t-13.5 151v192q1 74 13.5 151.5t37.5 150t64.5 136.5t93.5 112t123.5 75.5t156.5 27.5 t157 -27.5t124.5 -75t93.5 -111.5t64.5 -136.5t37.5 -150t13 -152.5v-192zM985 825q-1 58 -9 121t-26 123t-46.5 114.5t-69.5 95.5t-96 65t-125 24t-124.5 -24.5t-95.5 -65.5t-69.5 -95.5t-46.5 -114.5t-26 -123t-9 -120v-194q1 -58 9.5 -120.5t26.5 -123t46.5 -115 t69.5 -95.5t96 -65.5t125 -24.5q71 0 125.5 24.5t95.5 65.5t69.5 95.5t46 115t25 123t8.5 120.5v194z" />
<glyph unicode="&#x399;" d="M193 1456h843v-108h-365v-1242h365v-106h-843v106h354v1242h-354v108z" />
<glyph unicode="&#x39a;" d="M508 721l-187 -199v-522h-121v1456h121v-779l179 206l492 573h149l-552 -647l592 -809h-146z" />
<glyph unicode="&#x39b;" d="M620 1282l-419 -1282h-123l487 1456h111l488 -1456h-123z" />
<glyph unicode="&#x39c;" d="M321 1456l293 -824l312 824h157v-1456h-117v645l9 651l-323 -858h-78l-300 844l10 -637v-645h-117v1456h154z" />
<glyph unicode="&#x39d;" d="M1068 0h-119l-668 1229l-1 -1229h-119v1456h119l668 -1227l1 1227h119v-1456z" />
<glyph unicode="&#x39e;" d="M153 101h918v-101h-918v101zM249 784h716v-102h-716v102zM164 1456h880v-102h-880v102z" />
<glyph unicode="&#x39f;" d="M1103 631q-1 -74 -13 -151.5t-37.5 -150t-64.5 -136t-92.5 -111t-123.5 -75t-157 -27.5q-86 0 -156 27.5t-124.5 75t-94 111.5t-65 136.5t-38 149.5t-13.5 151v192q1 74 13.5 151.5t37.5 150t64.5 136.5t93.5 112t123.5 75.5t156.5 27.5t157 -27.5t124.5 -75t93.5 -111.5 t64.5 -136.5t37.5 -150t13 -152.5v-192zM985 825q-1 58 -9 121t-26 123t-46.5 114.5t-69.5 95.5t-96 65t-125 24t-124.5 -24.5t-95.5 -65.5t-69.5 -95.5t-46.5 -114.5t-26 -123t-9 -120v-194q1 -58 9.5 -120.5t26.5 -123t46.5 -115t69.5 -95.5t96 -65.5t125 -24.5 q71 0 125.5 24.5t95.5 65.5t69.5 95.5t46 115t25 123t8.5 120.5v194z" />
<glyph unicode="&#x3a0;" d="M1054 0h-118v1354h-644v-1354h-118v1456h880v-1456z" />
<glyph unicode="&#x3a1;" d="M336 600v-600h-120v1456h458q96 -2 179.5 -32t146 -85.5t98.5 -134.5t36 -179t-36 -178.5t-98.5 -133t-146.5 -83.5t-179 -30h-338zM336 701h338q72 1 134 24t108 64t72.5 100t26.5 134t-26 136t-72 103.5t-108 66t-135 25.5h-338v-653z" />
<glyph unicode="&#x3a3;" d="M761 743l-490 -641h857v-102h-1007v93l516 666l-516 604v93h952v-102h-795l483 -575v-36z" />
<glyph unicode="&#x3a4;" d="M1139 1351h-464v-1351h-117l1 1351h-465v105h1045v-105z" />
<glyph unicode="&#x3a5;" d="M600 662l389 794h136l-467 -908l-2 -548h-112l-2 548l-467 908h139z" />
<glyph unicode="&#x3a6;" d="M673 1258q103 -5 190.5 -46.5t151.5 -111t99.5 -164t35.5 -204.5q0 -111 -35.5 -205.5t-99.5 -165t-151.5 -112.5t-190.5 -47v-202h-118v202q-104 5 -191.5 46.5t-150.5 111.5t-98.5 164.5t-35.5 205.5q0 110 35.5 204.5t98.5 165t150.5 112t191.5 46.5v198h118v-198z M1031 732q0 89 -25 165t-71.5 132t-113 89t-148.5 38v-853q82 4 148.5 38t113 91t71.5 133.5t25 166.5zM198 730q0 -90 25 -166t71 -132.5t112 -90t149 -37.5v852q-83 -5 -149 -38.5t-112 -90t-71 -132.5t-25 -165z" />
<glyph unicode="&#x3a7;" d="M629 834l369 622h141l-439 -718l453 -738h-140l-382 642l-383 -642h-141l453 738l-439 718h141z" />
<glyph unicode="&#x3a8;" d="M679 474q75 9 134 43.5t100 89t63.5 128t22.5 160.5l1 561h118l1 -561q-1 -112 -32 -204.5t-88 -160.5t-138 -109t-182 -50v-371h-119v371q-101 9 -181.5 50.5t-137 109.5t-87 160t-31.5 204v561h119l1 -561q0 -87 22 -160t63 -127.5t99.5 -89t132.5 -43.5v981h119v-982z " />
<glyph unicode="&#x3aa;" d="M193 1456h843v-108h-365v-1242h365v-106h-843v106h354v1242h-354v108zM294 1729q0 33 22 57t60 24t60.5 -24t22.5 -57q0 -32 -22.5 -55.5t-60.5 -23.5t-60 23.5t-22 55.5zM732 1728q0 33 22 57t60 24t60.5 -24t22.5 -57q0 -32 -22.5 -55.5t-60.5 -23.5t-60 23.5t-22 55.5 z" />
<glyph unicode="&#x3ab;" d="M600 662l389 794h136l-467 -908l-2 -548h-112l-2 548l-467 908h139zM295 1722q0 33 22 57t60 24t60.5 -24t22.5 -57q0 -32 -22.5 -55.5t-60.5 -23.5t-60 23.5t-22 55.5zM733 1721q0 33 22 57t60 24t60.5 -24t22.5 -57q0 -32 -22.5 -55.5t-60.5 -23.5t-60 23.5t-22 55.5z " />
<glyph unicode="&#x3ac;" d="M983 1082v-817q0 -34 5 -66.5t16 -57t30.5 -39.5t49.5 -15q16 0 30.5 2.5t27.5 5.5l17 -93q-24 -13 -47.5 -18t-49.5 -5q-43 0 -75 13t-55 36.5t-38 57t-22 74.5q-56 -85 -140.5 -133t-195.5 -48q-104 0 -179.5 44.5t-125 118.5t-73.5 170t-24 199v21q0 73 10.5 143.5 t32 134t54 117t77.5 92.5t102 61t128 22q112 0 195.5 -50.5t137.5 -138.5l32 169h80zM255 511q0 -79 15.5 -156t51 -138t93.5 -99t143 -38q55 0 102 16t85.5 44.5t68.5 67t50 84.5v480q-20 47 -49 88.5t-67.5 72t-85.5 49t-102 18.5q-86 0 -144.5 -42t-94 -109t-51 -150.5 t-15.5 -166.5v-21zM649 1578h131l-143 -329h-73z" />
<glyph unicode="&#x3ad;" d="M629 502q-66 0 -130 -8.5t-114 -31.5t-80.5 -63t-30.5 -104q0 -57 31 -98t81.5 -66.5t115 -37.5t131.5 -12q64 0 127 14.5t113 43t82 71.5t33 100h121q-4 -88 -47.5 -150.5t-110.5 -102.5t-150.5 -58.5t-167.5 -18.5q-90 0 -175.5 18t-153 56.5t-109 98.5t-41.5 144 q0 54 18.5 96.5t51.5 74t78 53t99 34.5q-48 15 -89.5 37t-72 51.5t-48 67t-17.5 83.5q0 83 38 141.5t102 95t146.5 53.5t172.5 17q84 0 164 -19t144 -58t104 -97.5t45 -136.5h-121q-2 54 -32.5 93.5t-78.5 65.5t-107.5 38.5t-117.5 12.5q-66 0 -127 -11.5t-107.5 -36.5 t-74.5 -63.5t-28 -92.5q0 -56 28 -93.5t74 -59.5t106 -31.5t125 -9.5h214v-100h-214zM678 1577h131l-143 -329h-73z" />
<glyph unicode="&#x3ae;" d="M297 1082l7 -197q53 98 143 157t221 60q187 0 281 -108t96 -313v-1096h-120v1095q0 75 -17 134t-52 100.5t-88.5 63.5t-126.5 22q-68 0 -121.5 -18t-95 -49t-71 -74.5t-47.5 -94.5v-764h-120v1082h111zM670 1578h131l-143 -329h-73z" />
<glyph unicode="&#x3af;" d="M207 1082h456l1 -792q-1 -64 16.5 -104.5t47.5 -64t70.5 -32.5t85.5 -9q42 0 81 9.5t73 20.5l25 -87q-52 -26 -101 -34.5t-101 -8.5q-72 0 -130 16t-100 52.5t-65 96.5t-24 149l-2 681h-333v107zM648 1557h131l-143 -329h-73z" />
<glyph unicode="&#x3b0;" d="M309 1082v-659q0 -80 18.5 -143.5t54.5 -107.5t89 -67.5t122 -23.5q89 0 154.5 40t108 105t63 147t20.5 167q-1 140 -34 276t-88 266h132q23 -59 43 -122t35 -130t23 -138.5t8 -149.5q0 -109 -26.5 -210.5t-83 -179.5t-143.5 -125t-207 -47q-101 0 -177 30.5t-127.5 87.5 t-77.5 139.5t-27 187.5v657h120zM555 1646h141l-80 -252h-96zM251 1346q0 34 22 58.5t61 24.5t62 -24.5t23 -58.5q0 -33 -23 -57.5t-62 -24.5q-38 0 -60.5 24.5t-22.5 57.5zM713 1346q0 34 22 58.5t61 24.5t62 -24.5t23 -58.5q0 -33 -23 -57.5t-62 -24.5q-38 0 -60.5 24.5 t-22.5 57.5z" />
<glyph unicode="&#x3b1;" d="M983 1082v-817q0 -34 5 -66.5t16 -57t30.5 -39.5t49.5 -15q16 0 30.5 2.5t27.5 5.5l17 -93q-24 -13 -47.5 -18t-49.5 -5q-43 0 -75 13t-55 36.5t-38 57t-22 74.5q-56 -85 -140.5 -133t-195.5 -48q-104 0 -179.5 44.5t-125 118.5t-73.5 170t-24 199v21q0 73 10.5 143.5 t32 134t54 117t77.5 92.5t102 61t128 22q112 0 195.5 -50.5t137.5 -138.5l32 169h80zM255 511q0 -79 15.5 -156t51 -138t93.5 -99t143 -38q55 0 102 16t85.5 44.5t68.5 67t50 84.5v480q-20 47 -49 88.5t-67.5 72t-85.5 49t-102 18.5q-86 0 -144.5 -42t-94 -109t-51 -150.5 t-15.5 -166.5v-21z" />
<glyph unicode="&#x3b2;" d="M608 1476q90 0 165 -28t129.5 -78.5t85 -121t30.5 -155.5q0 -53 -14.5 -100t-41 -86.5t-64.5 -71t-84 -53.5q65 -19 118.5 -53t91.5 -82t59 -109t21 -134q0 -101 -34.5 -180t-95.5 -133.5t-143 -83t-176 -28.5q-47 0 -94.5 8t-92 24t-84.5 40.5t-72 57.5v-508h-120v1461 q1 82 32.5 157t87 132t131.5 91t165 34zM604 823q140 2 217.5 72.5t76.5 201.5q0 59 -21.5 109.5t-59.5 88t-91.5 58.5t-117.5 21q-66 0 -120 -25.5t-93 -68t-61 -99t-22 -119.5v-821q23 -38 58.5 -68t79 -50.5t93 -31.5t102.5 -11q74 0 136.5 22t107.5 63t70 100.5 t25 134.5q0 72 -24.5 130.5t-68.5 100.5t-104.5 65.5t-132.5 24.5h-143v102h93z" />
<glyph unicode="&#x3b3;" d="M1033 1082h126l-473 -1055v-442h-122v441l-474 1056h126l364 -820l46 -142l47 142z" />
<glyph unicode="&#x3b4;" d="M264 1289q0 69 32 120.5t84 85.5t119 51t138 17q82 1 161.5 -20t154.5 -61l-29 -88q-60 26 -133.5 47t-154.5 20q-44 0 -88.5 -9.5t-80.5 -30t-59 -53t-23 -77.5q-1 -44 22 -77t62 -59t91 -45.5t110 -36.5q102 -29 184.5 -78.5t141.5 -117.5t91.5 -153.5t33.5 -187.5v-32 q-1 -110 -35.5 -205.5t-98.5 -166t-155.5 -111.5t-206.5 -41t-207 41t-156.5 111.5t-99.5 166t-36 205.5v32q1 87 28 166t75 142t115 106.5t148 58.5l2 11q-45 18 -86.5 43.5t-73.5 59t-51 75t-19 91.5zM246 504q1 -86 26.5 -163t74 -134.5t118.5 -91.5t160 -34t159.5 34 t117.5 92t73 134.5t26 162.5v32q-1 72 -28.5 143t-76.5 129t-115 97.5t-144 48.5q-89 4 -160.5 -29t-122.5 -91.5t-79 -136t-29 -161.5v-32z" />
<glyph unicode="&#x3b5;" d="M629 502q-66 0 -130 -8.5t-114 -31.5t-80.5 -63t-30.5 -104q0 -57 31 -98t81.5 -66.5t115 -37.5t131.5 -12q64 0 127 14.5t113 43t82 71.5t33 100h121q-4 -88 -47.5 -150.5t-110.5 -102.5t-150.5 -58.5t-167.5 -18.5q-90 0 -175.5 18t-153 56.5t-109 98.5t-41.5 144 q0 54 18.5 96.5t51.5 74t78 53t99 34.5q-48 15 -89.5 37t-72 51.5t-48 67t-17.5 83.5q0 83 38 141.5t102 95t146.5 53.5t172.5 17q84 0 164 -19t144 -58t104 -97.5t45 -136.5h-121q-2 54 -32.5 93.5t-78.5 65.5t-107.5 38.5t-117.5 12.5q-66 0 -127 -11.5t-107.5 -36.5 t-74.5 -63.5t-28 -92.5q0 -56 28 -93.5t74 -59.5t106 -31.5t125 -9.5h214v-100h-214z" />
<glyph unicode="&#x3b6;" d="M1068 1456v-78l-451 -504q-57 -59 -106.5 -117t-86.5 -119.5t-58 -128t-21 -141.5q1 -60 27 -101.5t67 -69.5t91.5 -44.5t100.5 -27.5l160 -36q46 -11 90 -23t79 -34t56.5 -56t21.5 -88q0 -40 -15.5 -80.5t-40.5 -77t-56 -67t-63 -50.5l-68 57q27 21 50.5 45t40.5 49.5 t26.5 53t9.5 56.5q0 27 -14.5 46t-38 33t-54 23.5t-63.5 16.5l-141 29q-77 16 -146.5 41t-122.5 65t-84 98t-32 140q0 68 21.5 138t62 141.5t98 143.5t127.5 143l379 422h-795v102h949z" />
<glyph unicode="&#x3b7;" d="M297 1082l7 -197q53 98 143 157t221 60q187 0 281 -108t96 -313v-1096h-120v1095q0 75 -17 134t-52 100.5t-88.5 63.5t-126.5 22q-68 0 -121.5 -18t-95 -49t-71 -74.5t-47.5 -94.5v-764h-120v1082h111z" />
<glyph unicode="&#x3b8;" d="M1037 576q0 -118 -23.5 -225.5t-73.5 -190t-130 -131.5t-192 -49t-191.5 49t-130.5 131.5t-75.5 190t-24.5 225.5v303q0 118 24 226t74.5 190.5t130 132t191.5 49.5t192 -49.5t131 -132t74.5 -190.5t23.5 -226v-303zM315 779h603v120q0 90 -15 175.5t-50 152t-92.5 107.5 t-144.5 41q-86 0 -144 -41t-92.5 -107.5t-49.5 -152t-15 -175.5v-120zM918 677h-603v-119q0 -89 15.5 -175t50.5 -153t93 -108t144 -41t143.5 41t92 108t49.5 153t15 175v119z" />
<glyph unicode="&#x3b9;" d="M207 1082h456l1 -792q-1 -64 16.5 -104.5t47.5 -64t70.5 -32.5t85.5 -9q42 0 81 9.5t73 20.5l25 -87q-52 -26 -101 -34.5t-101 -8.5q-72 0 -130 16t-100 52.5t-65 96.5t-24 149l-2 681h-333v107z" />
<glyph unicode="&#x3ba;" d="M506 506l-173 -157v-349h-120v1082h120v-598l147 152l448 446h147l-487 -495l537 -587h-154z" />
<glyph unicode="&#x3bb;" d="M193 0h-132l421 1054l-61 160q-13 35 -29.5 71t-38.5 65t-51.5 47.5t-68.5 18.5q-13 0 -29 -2t-28 -4l-5 95q16 5 37.5 9t41.5 4q64 0 111 -25t80 -64t55.5 -85.5t38.5 -89.5l370 -987q11 -31 24.5 -61.5t32 -55t42 -40t54.5 -15.5q14 0 23 1.5t24 4.5l3 -101 q-12 -4 -28 -7.5t-30 -3.5q-54 0 -94 18t-70.5 50.5t-54 76.5t-42.5 96l-250 672l-15 -54z" />
<glyph unicode="&#x3bc;" d="M324 1082v-633q1 -87 17 -155.5t48 -115.5t81 -72t117 -25q72 0 125.5 18t91.5 51t62 78.5t37 100.5v753h120v-1082h-109l-7 162q-46 -84 -122 -132.5t-189 -49.5q-90 0 -158.5 34.5t-113.5 95.5v-526h-118v1498h118z" />
<glyph unicode="&#x3bd;" d="M608 162l5 -21l6 21l372 920h125l-455 -1082h-98l-456 1082h125z" />
<glyph unicode="&#x3be;" d="M1028 1333q-63 20 -128 30.5t-132 10.5q-80 0 -150 -13.5t-121.5 -42t-81 -72.5t-29.5 -104q0 -68 32.5 -113.5t88 -73.5t129.5 -39.5t157 -11.5h136v-103h-136q-101 0 -189.5 -20t-154 -63t-103 -110.5t-37.5 -163.5q0 -83 35 -142.5t92 -101t128.5 -67.5t145.5 -42 l98 -23q44 -11 87 -23t77 -32.5t55 -53.5t21 -85q0 -38 -16 -75.5t-40 -70.5t-54 -61t-59 -48l-66 58q24 21 46 41t38.5 42t26 47t9.5 56q0 26 -14.5 44t-38 30.5t-53 21t-59.5 15.5l-71 17q-102 22 -194.5 55t-162 85t-110.5 129t-41 188q0 82 26.5 147.5t74.5 115.5 t113.5 85t143.5 55q-60 17 -112 43t-89.5 62t-59 81t-21.5 101q0 89 40 153t109 105t160.5 60.5t193.5 19.5q73 0 145 -12t131 -33z" />
<glyph unicode="&#x3bf;" d="M131 557q1 110 34 209t94.5 173.5t151 118.5t202.5 44q114 0 203.5 -44t151.5 -118.5t95 -173.5t34 -209v-33q-1 -110 -33.5 -209t-94.5 -173.5t-151 -118t-203 -43.5t-203.5 43.5t-151.5 118t-95 173.5t-34 209v33zM251 524q0 -86 24 -166t70 -141.5t113.5 -98.5 t156.5 -37q88 0 155.5 37t113 98.5t69.5 141.5t24 166v33q0 85 -24 165t-70 141.5t-114 99t-156 37.5t-155.5 -37.5t-113 -99t-69.5 -141.5t-24 -165v-33z" />
<glyph unicode="&#x3c0;" d="M1114 979h-175v-710q2 -85 30.5 -131.5t99.5 -47.5q26 0 51 5.5t46 11.5l25 -90q-37 -19 -72 -24.5t-73 -5.5q-120 0 -173 74t-54 213v705h-446v-979h-119v979h-160v103h1020v-103z" />
<glyph unicode="&#x3c1;" d="M1075 511q0 -105 -25 -201t-76 -169.5t-129 -117t-185 -43.5q-108 0 -198.5 40.5t-152.5 118.5v-555h-120v1015h1l-1 9q1 111 34 202t92 156t140.5 100.5t180.5 35.5q115 0 198 -48t136.5 -127t79 -181.5t25.5 -213.5v-21zM955 532q0 85 -16.5 169t-54 150.5t-98.5 107.5 t-150 41q-85 0 -146 -35.5t-100.5 -93t-59.5 -130t-22 -145.5h1v-323q45 -88 126.5 -140.5t197.5 -51.5q88 0 149.5 37t99.5 97.5t55.5 137.5t17.5 158v21z" />
<glyph unicode="&#x3c2;" d="M619 1102q94 0 173 -26.5t137 -76.5t91.5 -121.5t36.5 -162.5h-115q-2 64 -25 116.5t-65 90t-101 58t-132 20.5q-93 0 -161.5 -37t-113.5 -98.5t-67.5 -140.5t-23.5 -162v-42q1 -87 30.5 -158.5t83.5 -125.5t130.5 -90.5t169.5 -54.5q64 -11 119.5 -25.5t96.5 -39.5 t64.5 -63.5t22.5 -96.5q-1 -46 -18.5 -87t-46 -74.5t-64.5 -60t-72 -44.5l-56 76q24 12 48.5 29.5t45 40.5t34 51.5t13.5 63.5q1 33 -14.5 55.5t-43.5 37t-65.5 23t-80.5 15.5q-118 21 -213 64.5t-162.5 109.5t-104.5 154.5t-38 199.5v42q1 107 33.5 205t94.5 172.5 t152 118.5t207 44z" />
<glyph unicode="&#x3c3;" d="M1154 979h-314q112 -70 170.5 -184.5t60.5 -255.5v-33q-1 -101 -33 -196t-92.5 -168.5t-149 -117.5t-202.5 -44t-202.5 43.5t-150 118t-93.5 173.5t-33 209v33q1 107 33.5 202t94 167t149.5 114t199 42h563v-103zM235 524q1 -86 24 -166t68 -141.5t111.5 -98.5t155.5 -37 q88 0 154.5 37t111.5 98.5t68 141.5t23 166v33q0 83 -24 159t-69.5 134.5t-112 93.5t-153.5 35q-86 0 -152.5 -35t-111.5 -93.5t-68.5 -134.5t-24.5 -159v-33z" />
<glyph unicode="&#x3c4;" d="M1064 977h-390l-1 -676q1 -117 49.5 -167.5t137.5 -50.5q37 0 71 8t63 18l25 -89q-46 -25 -90 -33t-90 -8q-144 2 -214 80t-72 246v672h-367v105h878v-105z" />
<glyph unicode="&#x3c5;" d="M309 1082v-659q0 -80 18.5 -143.5t54.5 -107.5t89 -67.5t122 -23.5q89 0 154.5 40t108 105t63 147t20.5 167q-1 140 -34 276t-88 266h132q23 -59 43 -122t35 -130t23 -138.5t8 -149.5q0 -109 -26.5 -210.5t-83 -179.5t-143.5 -125t-207 -47q-101 0 -177 30.5t-127.5 87.5 t-77.5 139.5t-27 187.5v657h120z" />
<glyph unicode="&#x3c6;" d="M564 -18q-113 12 -192 63t-129 128t-72.5 173.5t-22.5 199.5q0 76 13 153.5t41.5 148t73 131t107.5 103.5l63 -87q-50 -41 -83.5 -94.5t-54.5 -113.5t-30.5 -122.5t-10.5 -120.5q0 -78 15.5 -155t51 -140t92 -107t138.5 -57v780q0 40 12 78.5t36.5 69t61.5 49.5t88 20 q58 1 106.5 -21.5t87.5 -61.5t69 -91.5t49.5 -112.5t29.5 -124t10 -126q0 -100 -25 -196.5t-77.5 -174t-134 -129.5t-194.5 -63v-460h-118zM683 84q82 12 141.5 57.5t97 109.5t55.5 141t18 152q-1 43 -6.5 92t-17 98t-30 94t-44 79t-59 53.5t-76.5 18.5q-21 0 -35.5 -10 t-24 -25.5t-14 -35t-5.5 -40.5v-784z" />
<glyph unicode="&#x3c7;" d="M624 640l336 442h145l-412 -531l428 -551h-142l-353 461l-353 -461h-143l428 551l-412 531h143z" />
<glyph unicode="&#x3c8;" d="M674 1082v-998q92 12 155 59t102 116t55.5 152t16.5 167q-1 131 -30 257.5t-78 246.5h129q47 -105 73 -231t26 -272q0 -109 -23.5 -212t-77 -185t-139 -135.5t-209.5 -63.5v-426h-118v427q-108 11 -187.5 61t-131.5 130t-77.5 186.5t-25.5 231.5v489h118l1 -491 q0 -101 18.5 -188.5t55.5 -154t94 -109t135 -54.5v997h118z" />
<glyph unicode="&#x3c9;" d="M314 1082q-49 -134 -78.5 -272t-30.5 -281q0 -46 3 -97t10 -100.5t19.5 -95t32 -80t46.5 -55t64 -20.5q55 0 90 35.5t55 92.5t27.5 128t7.5 141l1 292h119l1 -292q0 -70 7.5 -141t27.5 -128t54.5 -92.5t89.5 -35.5q37 0 64.5 20.5t47 55t32 80t19.5 95t10 100.5t3 97 q-1 143 -31 281t-78 272h126q51 -115 76.5 -256t25.5 -295q0 -59 -5 -122.5t-18 -125t-34 -116.5t-53.5 -96.5t-76.5 -66t-102 -24.5q-50 0 -89.5 17.5t-69.5 48t-51.5 73t-35.5 92.5q-14 -50 -35 -92.5t-51 -73t-69.5 -48t-89.5 -17.5q-58 0 -102 24.5t-76.5 66t-53.5 96.5 t-34 116.5t-18 125t-5 122.5q0 154 25.5 295t76.5 256h126z" />
<glyph unicode="&#x3ca;" d="M207 1082h456l1 -792q-1 -64 16.5 -104.5t47.5 -64t70.5 -32.5t85.5 -9q42 0 81 9.5t73 20.5l25 -87q-52 -26 -101 -34.5t-101 -8.5q-72 0 -130 16t-100 52.5t-65 96.5t-24 149l-2 681h-333v107zM292 1387q0 33 22 57t60 24t60.5 -24t22.5 -57q0 -32 -22.5 -55.5 t-60.5 -23.5t-60 23.5t-22 55.5zM730 1386q0 33 22 57t60 24t60.5 -24t22.5 -57q0 -32 -22.5 -55.5t-60.5 -23.5t-60 23.5t-22 55.5z" />
<glyph unicode="&#x3cb;" d="M309 1082v-659q0 -80 18.5 -143.5t54.5 -107.5t89 -67.5t122 -23.5q89 0 154.5 40t108 105t63 147t20.5 167q-1 140 -34 276t-88 266h132q23 -59 43 -122t35 -130t23 -138.5t8 -149.5q0 -109 -26.5 -210.5t-83 -179.5t-143.5 -125t-207 -47q-101 0 -177 30.5t-127.5 87.5 t-77.5 139.5t-27 187.5v657h120zM273 1387q0 33 22 57t60 24t60.5 -24t22.5 -57q0 -32 -22.5 -55.5t-60.5 -23.5t-60 23.5t-22 55.5zM711 1386q0 33 22 57t60 24t60.5 -24t22.5 -57q0 -32 -22.5 -55.5t-60.5 -23.5t-60 23.5t-22 55.5z" />
<glyph unicode="&#x3cc;" d="M131 557q1 110 34 209t94.5 173.5t151 118.5t202.5 44q114 0 203.5 -44t151.5 -118.5t95 -173.5t34 -209v-33q-1 -110 -33.5 -209t-94.5 -173.5t-151 -118t-203 -43.5t-203.5 43.5t-151.5 118t-95 173.5t-34 209v33zM251 524q0 -86 24 -166t70 -141.5t113.5 -98.5 t156.5 -37q88 0 155.5 37t113 98.5t69.5 141.5t24 166v33q0 85 -24 165t-70 141.5t-114 99t-156 37.5t-155.5 -37.5t-113 -99t-69.5 -141.5t-24 -165v-33zM664 1578h131l-143 -329h-73z" />
<glyph unicode="&#x3cd;" d="M309 1082v-659q0 -80 18.5 -143.5t54.5 -107.5t89 -67.5t122 -23.5q89 0 154.5 40t108 105t63 147t20.5 167q-1 140 -34 276t-88 266h132q23 -59 43 -122t35 -130t23 -138.5t8 -149.5q0 -109 -26.5 -210.5t-83 -179.5t-143.5 -125t-207 -47q-101 0 -177 30.5t-127.5 87.5 t-77.5 139.5t-27 187.5v657h120zM629 1557h131l-143 -329h-73z" />
<glyph unicode="&#x3ce;" d="M314 1082q-49 -134 -78.5 -272t-30.5 -281q0 -46 3 -97t10 -100.5t19.5 -95t32 -80t46.5 -55t64 -20.5q55 0 90 35.5t55 92.5t27.5 128t7.5 141l1 292h119l1 -292q0 -70 7.5 -141t27.5 -128t54.5 -92.5t89.5 -35.5q37 0 64.5 20.5t47 55t32 80t19.5 95t10 100.5t3 97 q-1 143 -31 281t-78 272h126q51 -115 76.5 -256t25.5 -295q0 -59 -5 -122.5t-18 -125t-34 -116.5t-53.5 -96.5t-76.5 -66t-102 -24.5q-50 0 -89.5 17.5t-69.5 48t-51.5 73t-35.5 92.5q-14 -50 -35 -92.5t-51 -73t-69.5 -48t-89.5 -17.5q-58 0 -102 24.5t-76.5 66t-53.5 96.5 t-34 116.5t-18 125t-5 122.5q0 154 25.5 295t76.5 256h126zM676 1557h131l-143 -329h-73z" />
<glyph unicode="&#x3d1;" d="M1173 675q-39 -14 -81 -23.5t-85 -11.5v-212q-1 -103 -28.5 -186t-80.5 -141.5t-130.5 -89.5t-177.5 -31t-178.5 33.5t-133 93t-83.5 141.5t-30 180v329l120 2v-331q0 -76 20 -139.5t58.5 -109t95 -70.5t131.5 -25t131 23t92.5 67.5t55 108.5t19.5 145v215 q-108 10 -200 48.5t-159.5 101.5t-105.5 149.5t-39 193.5v19q1 70 22 130.5t59.5 105.5t94 71t124.5 26q83 0 144 -32t100.5 -86.5t59 -126.5t19.5 -152v-346q79 4 156 29zM504 1134q0 -83 28.5 -150t79.5 -116t121.5 -79.5t154.5 -40.5v343q0 58 -10.5 111.5t-34 93.5 t-62.5 63.5t-97 23.5q-44 0 -77.5 -17.5t-56 -48t-34.5 -72t-12 -90.5v-21z" />
<glyph unicode="&#x3d2;" d="M843 1239q22 52 47.5 94.5t56 72.5t68 46t83.5 15q27 -1 52.5 -6.5t50.5 -19.5l-22 -94q-13 7 -28.5 11t-33.5 4q-30 1 -54.5 -11t-44 -32.5t-34.5 -46.5t-27 -53l-277 -619v-600h-119v602l-280 617q-12 26 -27 52t-34.5 46.5t-43.5 33t-54 11.5q-19 0 -34 -4t-28 -11 l-23 94q26 14 51 19.5t53 6.5q46 1 83.5 -15t68 -46t56 -72.5t47.5 -94.5l186 -426l37 -115l38 115z" />
<glyph unicode="&#x3d6;" d="M1188 979h-136q38 -113 58.5 -243.5t20.5 -267.5q0 -52 -5 -108t-17.5 -110t-33 -103t-52 -86t-74.5 -59t-99 -22q-51 0 -90.5 17.5t-69.5 48t-51.5 73t-35.5 92.5q-14 -50 -35 -92.5t-51 -73t-69.5 -48t-90.5 -17.5q-56 0 -99 22t-74 59t-52 86t-33 103t-17.5 110 t-5.5 108q0 137 20.5 267.5t58.5 243.5h-121v103h1154v-103zM1011 466q-1 130 -25 259t-65 254h-635q-41 -125 -65 -254t-25 -259q0 -38 2.5 -81t9 -86t18.5 -82t30.5 -69.5t44.5 -48.5t62 -18q37 0 64.5 16.5t48 45t33.5 67t20.5 82.5t11 91.5t3.5 94.5l1 269h118l1 -269 q0 -70 7.5 -141t27.5 -128t55 -92.5t91 -35.5q35 0 61 18t44.5 48t30.5 69.5t18.5 82t9 86t2.5 81.5z" />
<glyph unicode="&#x400;" d="M962 698h-642v-594h740v-104h-859v1456h855v-105h-736v-549h642v-104zM635 1565h-104l-218 266h144z" />
<glyph unicode="&#x401;" d="M962 698h-642v-594h740v-104h-859v1456h855v-105h-736v-549h642v-104zM267 1729q0 33 22 57t60 24t60.5 -24t22.5 -57q0 -32 -22.5 -55.5t-60.5 -23.5t-60 23.5t-22 55.5zM705 1728q0 33 22 57t60 24t60.5 -24t22.5 -57q0 -32 -22.5 -55.5t-60.5 -23.5t-60 23.5t-22 55.5 z" />
<glyph unicode="&#x402;" d="M1009 1354h-494v-532q48 20 99 32.5t105 12.5q105 0 183 -35t129.5 -96.5t77.5 -146t26 -183.5q0 -91 -25.5 -167t-74 -131t-119.5 -86.5t-162 -32.5l-1 97q67 1 116.5 26.5t82 69t48 101t15.5 123.5q0 74 -17 138.5t-53 112.5t-92 76t-134 28q-57 0 -105.5 -14.5 t-98.5 -32.5v-714h-117v1354h-350v102h961v-102z" />
<glyph unicode="&#x403;" d="M1064 1354h-754v-1354h-120v1456h874v-102zM736 1829h145l-230 -266h-99z" />
<glyph unicode="&#x404;" d="M1118 442q-9 -101 -44.5 -185.5t-96.5 -146t-146.5 -96t-194.5 -34.5q-122 0 -213.5 51.5t-152.5 137t-92 196.5t-31 231v264q0 120 31 231t92 196.5t152.5 137t213.5 51.5q109 0 194.5 -33t146 -94t96.5 -147t45 -191h-119q-12 82 -38 149t-69.5 115t-107 74t-148.5 26 q-97 0 -166.5 -44.5t-114.5 -117t-67 -164.5t-22 -187v-74h573v-102h-573v-90q0 -96 22 -188t67 -164.5t114.5 -117.5t166.5 -45q86 0 149.5 25t107 72t69.5 114t37 150h119z" />
<glyph unicode="&#x405;" d="M990 358q0 51 -15.5 91.5t-43 72.5t-63.5 56.5t-77 43.5t-84 34t-83 28q-51 16 -103.5 35.5t-102 45t-93 58t-76 73.5t-51 91.5t-18.5 112.5q0 91 40.5 161t105.5 118t146.5 72.5t164.5 24.5q93 0 177 -30.5t147.5 -85.5t101.5 -133.5t41 -174.5h-121q-8 71 -35 129.5 t-72 100.5t-105.5 65.5t-133.5 23.5q-61 0 -120.5 -16.5t-107 -50t-77 -84t-29.5 -118.5q0 -73 34.5 -124t87.5 -86t116.5 -58.5t120.5 -40.5q53 -16 107 -36.5t104.5 -47.5t94.5 -60.5t76.5 -76.5t51 -95.5t18.5 -116.5q0 -96 -41.5 -167t-107.5 -118.5t-150 -71 t-170 -23.5q-96 0 -186 28t-160.5 82t-114.5 133.5t-47 181.5h121q9 -78 41.5 -138.5t83.5 -101t118 -61t144 -20.5q64 0 125.5 16t110.5 49.5t79 85t30 123.5z" />
<glyph unicode="&#x406;" d="M193 1456h843v-108h-365v-1242h365v-106h-843v106h354v1242h-354v108z" />
<glyph unicode="&#x407;" d="M193 1456h843v-108h-365v-1242h365v-106h-843v106h354v1242h-354v108zM294 1729q0 33 22 57t60 24t60.5 -24t22.5 -57q0 -32 -22.5 -55.5t-60.5 -23.5t-60 23.5t-22 55.5zM732 1728q0 33 22 57t60 24t60.5 -24t22.5 -57q0 -32 -22.5 -55.5t-60.5 -23.5t-60 23.5t-22 55.5 z" />
<glyph unicode="&#x408;" d="M902 1456h122v-1014q-2 -98 -36 -182t-94.5 -146t-143.5 -98t-182 -36t-180.5 30.5t-140.5 87t-94 135.5t-42 177h122q3 -72 28 -132.5t68.5 -103.5t103.5 -66.5t135 -23.5q76 0 137 29t104.5 78t67 114t25.5 137v1014z" />
<glyph unicode="&#x409;" d="M726 1456v-610h144q82 -1 140.5 -37.5t96 -95.5t55 -135t17.5 -155t-17.5 -155t-55 -135t-96 -95.5t-140.5 -37.5h-259v1354h-260l-10 -557q-1 -84 -5.5 -175t-15.5 -179.5t-30.5 -168.5t-50.5 -140.5t-74.5 -97t-103.5 -36.5h-29v101h24q36 0 62.5 33.5t44.5 88 t29.5 126t18 148.5t9 154.5t3.5 145.5l15 659h488zM726 745v-644h144q55 1 92 31t58.5 77t30.5 104.5t9 111.5t-9 110t-31 102.5t-58.5 76.5t-91.5 31h-144z" />
<glyph unicode="&#x40a;" d="M252 785h362v671h115v-632h93q96 -1 161 -36.5t104 -93.5t56 -131t17 -149t-17 -150t-56 -132.5t-104 -94.5t-161 -37h-208v684h-362v-684h-115v1456h115v-671zM729 722v-616h93q71 1 114 30.5t66.5 74.5t31.5 99.5t8 105.5t-8.5 104.5t-32.5 98t-67 73.5t-112 30h-93z " />
<glyph unicode="&#x40b;" d="M996 1354h-464v-548q50 13 101 23t102 9q100 0 173.5 -30t122 -85t72.5 -133.5t24 -176.5l-1 -413h-117l-1 413q0 73 -15 132.5t-47.5 102t-84.5 65.5t-126 23q-54 1 -103.5 -8t-99.5 -23v-705h-117v1354h-348v102h929v-102z" />
<glyph unicode="&#x40c;" d="M508 721l-187 -199v-522h-121v1456h121v-779l179 206l492 573h149l-552 -647l592 -809h-146zM721 1775h145l-230 -266h-99z" />
<glyph unicode="&#x40d;" d="M939 1456h118v-1456h-118l1 1221l-651 -1221h-118v1456h118l-1 -1220zM666 1559h-104l-218 266h144z" />
<glyph unicode="&#x40e;" d="M608 597l36 -89l428 948h141l-570 -1208q-26 -53 -57.5 -101.5t-74 -86t-99 -59.5t-131.5 -22q-45 0 -82.5 7.5t-61.5 15.5l20 95q23 -5 55 -11t61 -6q51 0 90 17t70 44.5t54 62.5t41 71l54 107l-555 1074h138zM941 1837q-2 -59 -23.5 -106.5t-59.5 -81t-90 -51.5 t-115 -18t-115.5 18t-91 51.5t-60 81t-23.5 106.5h102q3 -80 51.5 -125.5t136.5 -45.5q85 0 133.5 46t52.5 125h102z" />
<glyph unicode="&#x40f;" d="M174 1456h118v-1355h644v1355h118v-1456h-377v-353h-118v353h-385v1456z" />
<glyph unicode="&#x410;" d="M905 406h-554l-129 -406h-121l474 1456h108l470 -1456h-120zM385 513h486l-242 766z" />
<glyph unicode="&#x411;" d="M1051 1354h-754v-532h299q103 -1 187 -29t144 -80.5t92.5 -128t32.5 -171.5q0 -95 -32.5 -171.5t-92.5 -130t-144 -82.5t-187 -29h-419v1456h874v-102zM297 720v-619h299q78 1 140 23.5t105.5 64t67 99t23.5 127.5q0 69 -23.5 125t-67 95.5t-106 61.5t-139.5 23h-299z " />
<glyph unicode="&#x412;" d="M194 0v1456h398q88 -1 171.5 -23.5t148.5 -69t104.5 -118t38.5 -170.5q0 -62 -19 -111.5t-51.5 -88t-76.5 -67t-95 -47.5q63 -15 116.5 -46t92.5 -76.5t61.5 -103.5t22.5 -125q1 -97 -36 -172.5t-100 -128t-145.5 -80.5t-172.5 -29h-458zM314 700v-596h341q66 1 126 22.5 t105.5 60.5t72 94.5t26.5 126.5q0 69 -25.5 122.5t-70 90.5t-103 57t-122.5 22h-350zM314 803h293q63 1 122 18t104.5 51t73.5 85t28 121q0 73 -29 124.5t-77 84t-109 48t-125 16.5h-281v-548z" />
<glyph unicode="&#x413;" d="M1064 1354h-754v-1354h-120v1456h874v-102z" />
<glyph unicode="&#x414;" d="M1003 101h108l-9 -454h-108v353h-780v-353h-104l-13 454h62q56 37 94 115t62.5 187.5t37.5 244t18 284.5l25 524h607v-1355zM491 932q-4 -102 -13.5 -218.5t-29 -229.5t-50.5 -213.5t-79 -169.5h566v1253h-377z" />
<glyph unicode="&#x415;" d="M962 698h-642v-594h740v-104h-859v1456h855v-105h-736v-549h642v-104z" />
<glyph unicode="&#x416;" d="M748 686h-75v-686h-116v686h-79l-290 -686h-144l326 730l-295 726h136l257 -668h89v668h116v-668h85l256 668h137l-295 -726l326 -730h-144z" />
<glyph unicode="&#x417;" d="M608 794q79 0 147.5 16.5t119.5 50.5t80.5 87.5t29.5 128.5q0 73 -29.5 128.5t-80.5 93t-121 56.5t-151 19q-71 0 -136.5 -20.5t-116 -59t-81 -94t-32.5 -125.5h-120q2 94 43 168.5t107.5 126t153.5 79t182 27.5q103 0 195 -24t160 -74t107.5 -126t39.5 -179 q0 -61 -20.5 -112.5t-56.5 -92.5t-85 -72t-107 -51q64 -18 118 -47.5t92.5 -72.5t60 -100.5t21.5 -129.5q0 -104 -43.5 -182t-115.5 -130t-167 -78t-199 -26q-96 0 -186 26.5t-160.5 79.5t-114 132.5t-45.5 186.5h120q2 -74 33 -134t83.5 -102t122 -65t147.5 -23 q82 0 155.5 19.5t129 58.5t88 97t32.5 136q0 85 -32 142t-86.5 92t-127 50.5t-154.5 15.5h-184v103h184z" />
<glyph unicode="&#x418;" d="M939 1456h118v-1456h-118l1 1221l-651 -1221h-118v1456h118l-1 -1220z" />
<glyph unicode="&#x419;" d="M939 1456h118v-1456h-118l1 1221l-651 -1221h-118v1456h118l-1 -1220zM893 1831q-2 -59 -23.5 -106.5t-59.5 -81t-90 -51.5t-115 -18t-115.5 18t-91 51.5t-60 81t-23.5 106.5h102q3 -80 51.5 -125.5t136.5 -45.5q85 0 133.5 46t52.5 125h102z" />
<glyph unicode="&#x41a;" d="M515 685h-187v-685h-118v1456h118v-670h186l505 670h140l-542 -716l584 -740h-148z" />
<glyph unicode="&#x41b;" d="M1062 1456v-1456h-118v1354h-504l-16 -602q-2 -81 -8.5 -168t-21.5 -170.5t-39.5 -158.5t-61.5 -131.5t-87 -90t-117 -33.5h-40v101h36q43 0 76 31t57 81.5t40.5 117t26.5 138.5t14.5 145t5.5 138l20 704h737z" />
<glyph unicode="&#x41c;" d="M321 1456l293 -824l312 824h157v-1456h-117v645l9 651l-323 -858h-78l-300 844l10 -637v-645h-117v1456h154z" />
<glyph unicode="&#x41d;" d="M1069 0h-113v698h-684v-698h-113v1456h113v-654h684v654h113v-1456z" />
<glyph unicode="&#x41e;" d="M1103 631q-1 -74 -13 -151.5t-37.5 -150t-64.5 -136t-92.5 -111t-123.5 -75t-157 -27.5q-86 0 -156 27.5t-124.5 75t-94 111.5t-65 136.5t-38 149.5t-13.5 151v192q1 74 13.5 151.5t37.5 150t64.5 136.5t93.5 112t123.5 75.5t156.5 27.5t157 -27.5t124.5 -75t93.5 -111.5 t64.5 -136.5t37.5 -150t13 -152.5v-192zM985 825q-1 58 -9 121t-26 123t-46.5 114.5t-69.5 95.5t-96 65t-125 24t-124.5 -24.5t-95.5 -65.5t-69.5 -95.5t-46.5 -114.5t-26 -123t-9 -120v-194q1 -58 9.5 -120.5t26.5 -123t46.5 -115t69.5 -95.5t96 -65.5t125 -24.5 q71 0 125.5 24.5t95.5 65.5t69.5 95.5t46 115t25 123t8.5 120.5v194z" />
<glyph unicode="&#x41f;" d="M1054 0h-118v1354h-644v-1354h-118v1456h880v-1456z" />
<glyph unicode="&#x420;" d="M336 600v-600h-120v1456h458q96 -2 179.5 -32t146 -85.5t98.5 -134.5t36 -179t-36 -178.5t-98.5 -133t-146.5 -83.5t-179 -30h-338zM336 701h338q72 1 134 24t108 64t72.5 100t26.5 134t-26 136t-72 103.5t-108 66t-135 25.5h-338v-653z" />
<glyph unicode="&#x421;" d="M1099 442q-12 -98 -49 -182.5t-98 -147t-144.5 -97.5t-187.5 -35q-87 0 -157.5 26.5t-125 72.5t-94.5 108t-66 133.5t-38.5 148.5t-13.5 153v211q1 76 13.5 153t38.5 148.5t66 133.5t94.5 108.5t125 73t157.5 26.5q106 0 189.5 -35t144.5 -97.5t97.5 -147.5t47.5 -185 h-119q-12 75 -38.5 141t-70.5 115.5t-106 78t-145 28.5q-71 0 -126 -24t-96.5 -64t-70.5 -93.5t-47 -113.5t-26.5 -122.5t-8.5 -121.5v-213q0 -59 8.5 -122t26.5 -123t47 -113.5t70.5 -94t96.5 -64.5t126 -24q84 0 146.5 27.5t106 76.5t70 115t37.5 142h119z" />
<glyph unicode="&#x422;" d="M1139 1351h-464v-1351h-117l1 1351h-465v105h1045v-105z" />
<glyph unicode="&#x423;" d="M608 597l36 -89l428 948h141l-570 -1208q-26 -53 -57.5 -101.5t-74 -86t-99 -59.5t-131.5 -22q-45 0 -82.5 7.5t-61.5 15.5l20 95q23 -5 55 -11t61 -6q51 0 90 17t70 44.5t54 62.5t41 71l54 107l-555 1074h138z" />
<glyph unicode="&#x424;" d="M673 1258q103 -5 190.5 -46.5t151.5 -111t99.5 -164t35.5 -204.5q0 -111 -35.5 -205.5t-99.5 -165t-151.5 -112.5t-190.5 -47v-202h-118v202q-104 5 -191.5 46.5t-150.5 111.5t-98.5 164.5t-35.5 205.5q0 110 35.5 204.5t98.5 165t150.5 112t191.5 46.5v198h118v-198z M1031 732q0 89 -25 165t-71.5 132t-113 89t-148.5 38v-853q82 4 148.5 38t113 91t71.5 133.5t25 166.5zM198 730q0 -90 25 -166t71 -132.5t112 -90t149 -37.5v852q-83 -5 -149 -38.5t-112 -90t-71 -132.5t-25 -165z" />
<glyph unicode="&#x425;" d="M629 834l369 622h141l-439 -718l453 -738h-140l-382 642l-383 -642h-141l453 738l-439 718h141z" />
<glyph unicode="&#x426;" d="M194 1456h118v-1355h640v2h1v1353h118v-1353h129l-9 -454h-109v351h-888v1456z" />
<glyph unicode="&#x427;" d="M1036 1456v-1456h-118v662q-74 -24 -148.5 -40t-166.5 -16q-202 0 -302.5 113.5t-102.5 333.5l1 403h118l1 -403q1 -172 69 -258.5t217 -86.5q85 -1 161.5 15.5t152.5 40.5v692h118z" />
<glyph unicode="&#x428;" d="M252 1456v-1355h305v1355h116v-1355h305v1355h116v-1456h-959v1456h117z" />
<glyph unicode="&#x429;" d="M254 1456v-1355h305v1355h116v-1355h277v1h28v1354h116v-1354h83l-9 -453h-106v351h-927v1456h117z" />
<glyph unicode="&#x42a;" d="M46 1456h484v-634h209q99 -1 175.5 -31.5t129 -84.5t80 -129t27.5 -164t-27.5 -164.5t-80 -130.5t-129 -86.5t-175.5 -31.5h-326v1354h-367v102zM530 720v-619h209q74 1 129 26t91.5 67.5t54 99.5t17.5 121q0 63 -18 118.5t-54.5 96.5t-91.5 65t-128 25h-209z" />
<glyph unicode="&#x42b;" d="M285 822h153q94 -1 164.5 -33t117 -87t69.5 -129t23 -160t-23 -161t-69.5 -130.5t-117 -88t-164.5 -33.5h-270v1456h117v-634zM285 720v-619h153q69 1 117.5 27t78.5 69.5t43.5 100t13.5 117.5q0 60 -14 115t-44.5 97t-78.5 67t-116 26h-153zM1077 0h-117v1456h117v-1456 z" />
<glyph unicode="&#x42c;" d="M323 822h299q103 -1 187 -29t144 -80.5t92.5 -128t32.5 -171.5q0 -95 -32.5 -171.5t-92.5 -130t-144 -82.5t-187 -29h-418v1456h119v-634zM323 720v-619h299q78 1 140 23.5t105.5 64t67 99t23.5 127.5q0 69 -23.5 125t-67 95.5t-106 61.5t-139.5 23h-299z" />
<glyph unicode="&#x42d;" d="M247 455q7 -83 31.5 -151.5t67.5 -118t106 -77t147 -27.5q64 0 117 20.5t94 56t71.5 83.5t50.5 104.5t29.5 119t10.5 125.5v91h-526v101h526v84q-1 63 -10.5 125.5t-29.5 119t-50.5 104.5t-71.5 83.5t-94 56t-117 20.5q-83 0 -146 -27.5t-106.5 -77t-68 -118.5 t-31.5 -151h-118q4 100 38.5 187t94.5 151t145 100.5t192 36.5q81 0 149.5 -23t123 -64.5t95.5 -99t68.5 -125.5t41.5 -144t14 -155v-274q0 -79 -14 -155t-41.5 -144t-68.5 -125t-95.5 -98.5t-123 -65t-149.5 -23.5q-107 0 -192.5 35t-145.5 98t-94 150t-38 192h118z" />
<glyph unicode="&#x42e;" d="M1120 568q0 -105 -19 -210t-61.5 -189t-112 -136.5t-171.5 -52.5q-99 0 -167 52.5t-109.5 136.5t-59.5 189t-18 210v118h-154v-686h-117v1456h117v-669h154v100q0 70 7.5 141t24.5 136.5t44.5 122t66.5 99t91 66.5t119 24q68 0 121.5 -24t94 -66.5t68.5 -99t46 -122 t26.5 -136.5t8.5 -141v-319zM1000 889q0 83 -10 168.5t-37 155.5t-75 114t-123 44q-49 0 -85 -20.5t-62 -55.5t-42.5 -82t-26.5 -100.5t-14 -111t-4 -112.5v-321q0 -56 4 -113t14 -111t27 -101.5t43 -82.5t62 -55.5t85 -20.5q50 0 88 20.5t65 55.5t44.5 82.5t28 101.5 t14.5 111t4 113v321z" />
<glyph unicode="&#x42f;" d="M914 0v613h-396l-313 -613h-129l339 646q-137 48 -212 144.5t-75 235.5q0 102 34.5 181.5t98 134.5t153 84t197.5 30h423v-1456h-120zM247 1028q0 -68 23 -125t66 -98t104.5 -64.5t138.5 -24.5h335v638h-303q-84 -1 -151.5 -23t-114.5 -64t-72.5 -102t-25.5 -137z" />
<glyph unicode="&#x430;" d="M937 0q-11 33 -17 73.5t-8 82.5q-31 -38 -72 -70t-89.5 -55.5t-104.5 -37t-117 -13.5q-76 0 -141.5 22t-114 62t-76 96.5t-27.5 126.5q0 93 41 158t111 105.5t162 59.5t193 19h234v123q-1 61 -24 107.5t-62.5 78t-94 47.5t-118.5 16q-58 0 -110.5 -15t-93 -43 t-65.5 -68.5t-27 -91.5l-120 1q3 69 36.5 127t90.5 100.5t132.5 66.5t161.5 24t161.5 -22t131 -66t88 -110t33.5 -154v-524q0 -54 9.5 -109t23.5 -105l1 -12h-128zM542 86q63 -1 120.5 15t105.5 44.5t85 68t58 86.5v237h-218q-79 0 -152 -12t-129 -39.5t-89.5 -73.5 t-33.5 -115q0 -49 20 -88t54 -66.5t80 -42t99 -14.5z" />
<glyph unicode="&#x431;" d="M628 1010q105 0 190 -37t145.5 -102t93.5 -153.5t33 -191.5v-33q0 -108 -33.5 -201.5t-95 -162.5t-150 -109t-198.5 -40t-198.5 40t-151 109t-96 162.5t-34.5 201.5v33v4v69q0 151 29.5 283t89.5 234t151 169.5t216 89.5q49 9 97.5 19.5t87.5 29.5t64 49.5t27 79.5h103 q-2 -56 -17 -96.5t-41 -69.5t-60 -48.5t-72.5 -32.5t-80.5 -21.5t-83 -15.5q-84 -14 -151 -51.5t-116.5 -95.5t-81.5 -134t-47 -166q66 86 163.5 137t216.5 51zM611 909q-83 0 -149 -30.5t-112.5 -82.5t-71 -122t-25.5 -148v-33q0 -84 24.5 -158.5t70 -131t112.5 -89.5 t153 -33q85 0 151 33t112 89.5t70 131.5t24 158v33q-1 79 -26 148.5t-71 121.5t-112.5 82.5t-149.5 30.5z" />
<glyph unicode="&#x432;" d="M185 0v1082h409q84 -1 159.5 -16t132.5 -49t90 -89t33 -135q-1 -94 -52.5 -151t-140.5 -85q54 -9 97 -32t74 -56t48 -76t17 -93q0 -79 -30 -135.5t-82.5 -93t-124 -54t-152.5 -17.5h-478zM305 498v-398h358q56 0 105 11.5t85.5 36t57.5 62.5t21 92q0 52 -22 89 t-58.5 60.5t-85.5 35t-103 11.5h-358zM305 598h300q59 0 110.5 10t90 32.5t61 59t22.5 90.5q0 56 -24 93t-64.5 58.5t-94 30t-112.5 8.5h-289v-382z" />
<glyph unicode="&#x433;" d="M1053 979h-733v-979h-123v1082h856v-103z" />
<glyph unicode="&#x434;" d="M181 101q49 41 83 99.5t56 132.5t33.5 164t17.5 194l18 391h639v-981h112l-9 -419h-110v318h-813v-318h-105l-9 419h87zM491 691q-6 -93 -15 -178t-26.5 -160t-45.5 -139t-71 -113h575v869h-404z" />
<glyph unicode="&#x435;" d="M655 -20q-113 0 -206 42t-159.5 114t-103 168.5t-37.5 205.5v43q1 116 38.5 216t102.5 174t153 116.5t189 42.5q108 0 191 -39t139.5 -106.5t86 -157.5t30.5 -193v-73h-810v-23q1 -85 29 -162.5t79 -136.5t123 -94.5t160 -35.5q100 -1 181 37t138 110l76 -57 q-30 -42 -71 -77.5t-91.5 -60.5t-110.5 -39t-127 -14zM632 1000q-73 0 -134 -27.5t-107 -76.5t-76 -115.5t-41 -145.5h685v13q-2 67 -24.5 130.5t-64 112.5t-101.5 79t-137 30z" />
<glyph unicode="&#x436;" d="M749 500h-85v-500h-117v500h-86l-302 -500h-142l347 556l-305 526h136l262 -475h90v475h117v-475h91l262 475h137l-307 -526l349 -556h-144z" />
<glyph unicode="&#x437;" d="M636 604q59 0 116.5 8.5t102.5 30.5t73 59t28 94q0 55 -28 94t-74 63.5t-104.5 35.5t-118.5 11q-56 0 -114.5 -12.5t-107.5 -38.5t-80.5 -65.5t-32.5 -93.5h-122q5 79 46 137.5t105 97t143.5 57.5t162.5 19q84 0 164.5 -16t143 -53t100 -95.5t37.5 -142.5 q0 -46 -17.5 -83.5t-47 -67t-69.5 -51.5t-86 -37q52 -13 96 -34t76.5 -52.5t51 -74t18.5 -97.5q0 -57 -19 -102t-52 -80t-77.5 -60.5t-96.5 -42t-108.5 -24t-112.5 -7.5q-55 0 -111 8t-107.5 24.5t-97.5 43t-80.5 63t-56 84t-24.5 106.5h122q0 -58 33 -101t84 -71.5 t114 -42.5t124 -14t122.5 11.5t111 37t80.5 66t31 99.5q0 64 -30.5 104t-79.5 62.5t-109.5 30.5t-121.5 8h-206v104h206z" />
<glyph unicode="&#x438;" d="M919 1082h121v-1082h-121v894l-611 -894h-119v1082h119v-895z" />
<glyph unicode="&#x439;" d="M919 1082h121v-1082h-121v894l-611 -894h-119v1082h119v-895zM901 1494q-2 -59 -23.5 -106.5t-59.5 -81t-90 -51.5t-115 -18t-115.5 18t-91 51.5t-60 81t-23.5 106.5h102q3 -80 51.5 -125.5t136.5 -45.5q85 0 133.5 46t52.5 125h102z" />
<glyph unicode="&#x43a;" d="M522 496h-196v-496h-121v1082h121v-480h194l434 480h153l-480 -525l532 -557h-160z" />
<glyph unicode="&#x43b;" d="M1031 1082v-1082h-121v979h-465l-8 -375q-1 -74 -6 -147.5t-18 -140.5t-35.5 -124.5t-58.5 -100t-87.5 -67t-122.5 -24.5h-44l2 107l38 1q49 0 83.5 21.5t57.5 57.5t36.5 84t21 103t10 114t3.5 116l11 478h703z" />
<glyph unicode="&#x43c;" d="M603 162l303 920h144v-1082h-118v823l-287 -823h-84l-294 848v-848h-117v1082h151z" />
<glyph unicode="&#x43d;" d="M1040 0h-121v496h-611v-496h-119v1082h119v-485h611v485h121v-1082z" />
<glyph unicode="&#x43e;" d="M131 557q1 110 34 209t94.5 173.5t151 118.5t202.5 44q114 0 203.5 -44t151.5 -118.5t95 -173.5t34 -209v-33q-1 -110 -33.5 -209t-94.5 -173.5t-151 -118t-203 -43.5t-203.5 43.5t-151.5 118t-95 173.5t-34 209v33zM251 524q0 -86 24 -166t70 -141.5t113.5 -98.5 t156.5 -37q88 0 155.5 37t113 98.5t69.5 141.5t24 166v33q0 85 -24 165t-70 141.5t-114 99t-156 37.5t-155.5 -37.5t-113 -99t-69.5 -141.5t-24 -165v-33z" />
<glyph unicode="&#x43f;" d="M1040 0h-121v979h-610v-979h-120v1082h851v-1082z" />
<glyph unicode="&#x440;" d="M1068 530q0 -105 -25.5 -204.5t-78 -176t-132.5 -123t-190 -46.5q-101 0 -185 39t-141 113v-548h-120v1498h112l5 -148q57 80 140 124t187 44q111 0 192 -45.5t133 -122t77.5 -176t25.5 -207.5v-21zM948 551q0 81 -18 161t-58 143.5t-103.5 103t-155.5 39.5 q-52 0 -97.5 -14.5t-83 -41t-67 -63t-49.5 -80.5v-536q42 -84 120 -133t179 -49q91 0 154.5 40t103 103.5t57.5 144t18 161.5v21z" />
<glyph unicode="&#x441;" d="M632 81q60 0 114.5 17.5t96.5 50.5t68.5 79.5t30.5 105.5h115q-4 -77 -40 -142t-94 -112t-133 -73.5t-158 -26.5q-119 0 -207 45t-146.5 120t-88 172.5t-29.5 202.5v42q0 105 29.5 202.5t88 172.5t146.5 120t206 45q90 0 166.5 -28.5t133 -80t89.5 -122t37 -154.5h-115 q-3 61 -28 113t-66 90t-96.5 59t-120.5 21q-94 0 -160.5 -38t-108.5 -100t-61.5 -140.5t-19.5 -159.5v-42q0 -82 19.5 -161t61.5 -140.5t108.5 -99.5t161.5 -38z" />
<glyph unicode="&#x442;" d="M1140 980h-461v-980h-121v980h-445v102h1027v-102z" />
<glyph unicode="&#x443;" d="M600 220l22 -59l391 921h136l-559 -1255q-22 -49 -52 -96t-71 -84.5t-94.5 -60.5t-122.5 -23q-24 0 -53 4.5t-49 9.5l14 100q17 -2 42.5 -4.5t42.5 -2.5q46 0 84 18t67.5 46.5t52 64t37.5 69.5l74 160l-486 1054h135z" />
<glyph unicode="&#x444;" d="M131 557q1 102 29.5 195.5t83 166.5t132.5 120.5t178 58.5v438h120v-438q100 -12 178 -59.5t132.5 -120t83 -165.5t29.5 -196v-33q-1 -103 -29.5 -196t-82.5 -166t-132.5 -120t-178.5 -58v-400h-120v400q-100 12 -178 59t-132.5 120t-83 165.5t-29.5 195.5v33zM251 524 q0 -79 20 -152.5t58 -133t94.5 -100t130.5 -52.5v909q-74 -12 -130.5 -53t-94.5 -100.5t-58 -133t-20 -151.5v-33zM977 557q0 77 -20 150.5t-58.5 132.5t-95 100t-129.5 54v-909q74 12 130.5 53t94.5 100.5t58 133.5t20 152v33z" />
<glyph unicode="&#x445;" d="M624 640l336 442h145l-412 -531l428 -551h-142l-353 461l-353 -461h-143l428 551l-412 531h143z" />
<glyph unicode="&#x446;" d="M217 1082h120v-981h583v981h121v-981h110l-9 -422h-110v321h-815v1082z" />
<glyph unicode="&#x447;" d="M1040 0h-120v456q-74 -26 -154.5 -40t-165.5 -15q-104 0 -185 23.5t-137.5 73t-86.5 126.5t-30 184l-1 274h120v-274q1 -162 83 -234.5t237 -69.5q79 1 162.5 12.5t157.5 37.5v528h120v-1082z" />
<glyph unicode="&#x448;" d="M255 1082v-981h302v981h118v-981h299v981h117v-1082h-953v1082h117z" />
<glyph unicode="&#x449;" d="M249 1082v-981h302v981h118v-981h253v1h46v980h117v-980h89l-9 -423h-107v321h-926v1082h117z" />
<glyph unicode="&#x44a;" d="M62 1082h438v-411h257q85 -1 155 -25t120 -67.5t77 -105t27 -136.5t-27 -137t-77 -106t-120 -69t-155 -25h-376v980h-319v102zM500 569v-468h257q61 1 109 18.5t81.5 48t51 73.5t17.5 94q0 50 -18 93t-51.5 74t-81.5 49t-108 18h-257z" />
<glyph unicode="&#x44b;" d="M281 671h178q79 -1 140.5 -27t103.5 -71t63.5 -105.5t21.5 -130.5q0 -69 -21.5 -130t-63.5 -107t-103.5 -72.5t-140.5 -27.5h-295v1082h117v-411zM281 569v-468h177q54 1 93.5 20t65 51t38 74t12.5 89q0 45 -12.5 87t-38.5 74.5t-65 52t-93 20.5h-177zM1067 0h-117v1082 h117v-1082z" />
<glyph unicode="&#x44c;" d="M308 671h351q87 -1 161.5 -23.5t129.5 -65t86.5 -104.5t31.5 -141q0 -80 -31.5 -142t-86 -105.5t-129.5 -66.5t-162 -23h-471v1082h120v-411zM308 569v-468h351q61 1 114 16.5t92 45.5t61 73t22 99q0 55 -22.5 98t-61.5 73t-91.5 46.5t-113.5 16.5h-351z" />
<glyph unicode="&#x44d;" d="M577 1000q-60 0 -116.5 -17t-100.5 -50t-71.5 -80.5t-28.5 -108.5h-117q3 79 40 144.5t96.5 113t136.5 74t161 26.5q122 0 215 -43.5t156.5 -118t96 -172.5t32.5 -206v-42q0 -109 -32.5 -207t-95.5 -172t-156.5 -117.5t-214.5 -43.5q-92 0 -170.5 28t-136.5 78.5 t-91.5 121.5t-36.5 158h117q1 -65 26 -117.5t68 -89.5t100.5 -57.5t123.5 -20.5q94 0 164 34.5t116.5 92t70.5 132.5t28 156h-527v101h527q-5 80 -30 153t-72 128.5t-116 88.5t-162 33z" />
<glyph unicode="&#x44e;" d="M242 589h189q3 93 24.5 185t64 165t108.5 118t159 45q65 0 116.5 -22.5t91.5 -61.5t68.5 -91.5t46.5 -113.5t26.5 -126.5t8.5 -129.5v-33q0 -97 -19.5 -194t-62 -175t-110 -126.5t-164.5 -48.5q-62 0 -111.5 20.5t-88.5 56t-67.5 84t-48 104.5t-30 118t-12.5 124h-189 v-487h-117v1082h117v-493zM550 524q0 -73 11.5 -151t38.5 -143t73 -107t116 -42q47 0 82.5 19.5t61.5 52.5t44 77t28.5 93.5t15.5 101t5 99.5v33q0 48 -5 99.5t-16 100.5t-29 93t-44.5 77.5t-62.5 53t-82 19.5t-81.5 -19.5t-62 -53t-44 -77.5t-28.5 -93t-16 -100.5t-5 -99.5 v-33z" />
<glyph unicode="&#x44f;" d="M1007 1082v-1082h-120v436h-379l-273 -436h-133l282 451q-56 15 -100.5 43t-76.5 67.5t-49 89t-17 108.5q0 76 31 136t85 101t127 63t157 23h466zM261 757q0 -49 17.5 -89t50 -68.5t77.5 -44.5t101 -17h380v442h-346q-59 0 -110.5 -15.5t-89 -44t-59 -70t-21.5 -93.5z " />
<glyph unicode="&#x450;" d="M655 -20q-113 0 -206 42t-159.5 114t-103 168.5t-37.5 205.5v43q1 116 38.5 216t102.5 174t153 116.5t189 42.5q108 0 191 -39t139.5 -106.5t86 -157.5t30.5 -193v-73h-810v-23q1 -85 29 -162.5t79 -136.5t123 -94.5t160 -35.5q100 -1 181 37t138 110l76 -57 q-30 -42 -71 -77.5t-91.5 -60.5t-110.5 -39t-127 -14zM632 1000q-73 0 -134 -27.5t-107 -76.5t-76 -115.5t-41 -145.5h685v13q-2 67 -24.5 130.5t-64 112.5t-101.5 79t-137 30zM687 1244h-104l-218 266h144z" />
<glyph unicode="&#x451;" d="M655 -20q-113 0 -206 42t-159.5 114t-103 168.5t-37.5 205.5v43q1 116 38.5 216t102.5 174t153 116.5t189 42.5q108 0 191 -39t139.5 -106.5t86 -157.5t30.5 -193v-73h-810v-23q1 -85 29 -162.5t79 -136.5t123 -94.5t160 -35.5q100 -1 181 37t138 110l76 -57 q-30 -42 -71 -77.5t-91.5 -60.5t-110.5 -39t-127 -14zM632 1000q-73 0 -134 -27.5t-107 -76.5t-76 -115.5t-41 -145.5h685v13q-2 67 -24.5 130.5t-64 112.5t-101.5 79t-137 30zM318 1408q0 33 22 57t60 24t60.5 -24t22.5 -57q0 -32 -22.5 -55.5t-60.5 -23.5t-60 23.5 t-22 55.5zM756 1407q0 33 22 57t60 24t60.5 -24t22.5 -57q0 -32 -22.5 -55.5t-60.5 -23.5t-60 23.5t-22 55.5z" />
<glyph unicode="&#x452;" d="M600 1235h-284v-362q57 104 152 166t217 63q89 0 157.5 -27.5t115 -80t71 -129t24.5 -174.5v-257h1v-523q-1 -77 -21.5 -141t-60 -109.5t-98 -71.5t-134.5 -26q-66 0 -127 19l14 98q23 -7 56.5 -11t56.5 -4q49 0 85 19t60 52t36 78t13 97v89h-1v691q0 72 -17 129 t-51.5 96.5t-86.5 60.5t-122 21q-57 0 -109 -18t-96 -50t-78.5 -75.5t-56.5 -95.5v-759h-120v1235h-208v102h208v199h120v-199h284v-102z" />
<glyph unicode="&#x453;" d="M1053 979h-733v-979h-123v1082h856v-103zM686 1487h145l-230 -266h-99z" />
<glyph unicode="&#x454;" d="M633 81q60 0 114.5 17.5t96.5 50.5t68.5 79.5t30.5 105.5h115q-4 -77 -40 -142t-94 -112t-133 -73.5t-158 -26.5q-119 0 -207 45t-146.5 120t-88 172.5t-29.5 202.5v42q0 105 29.5 202.5t88 172.5t146.5 120t206 45q90 0 166.5 -28.5t133 -80t89.5 -122t37 -154.5h-115 q-3 61 -28 113t-66 90t-96.5 59t-120.5 21q-90 0 -154.5 -35t-106.5 -92t-63.5 -130.5t-24.5 -150.5h501v-101h-501q3 -78 24.5 -152t63.5 -131.5t106.5 -92t155.5 -34.5z" />
<glyph unicode="&#x455;" d="M948 275q0 50 -25 87t-68.5 63.5t-100.5 44.5t-121 31q-78 16 -151 38.5t-130 57.5t-91 85.5t-34 124.5q0 70 35 125t92 93t130 57.5t150 19.5q88 0 164.5 -21.5t134 -63t91.5 -101.5t37 -137h-120q-2 52 -28 93.5t-69 69.5t-97.5 43t-112.5 15q-54 0 -105.5 -11.5 t-92 -35t-65 -59t-24.5 -83.5q-1 -51 23.5 -85.5t66.5 -58t98.5 -39t120.5 -28.5q82 -17 156.5 -41.5t131.5 -61t90 -89.5t33 -127q0 -76 -36.5 -132.5t-96 -94t-136 -56t-157.5 -18.5q-91 0 -171.5 22t-142 63.5t-98.5 101.5t-40 136h120q6 -64 38.5 -107t80 -68.5 t103.5 -36t110 -10.5q55 0 109.5 11.5t98 35t71 60t28.5 87.5z" />
<glyph unicode="&#x456;" d="M221 1082h502v-976h368v-106h-870v106h382v869h-382v107zM568 1378q0 37 21 64t70 27q48 0 69.5 -27t21.5 -64q0 -35 -21.5 -61.5t-69.5 -26.5q-49 0 -70 26.5t-21 61.5z" />
<glyph unicode="&#x457;" d="M221 1082h502v-976h368v-106h-870v106h382v869h-382v107zM356 1418q0 33 22 57t60 24t60.5 -24t22.5 -57q0 -32 -22.5 -55.5t-60.5 -23.5t-60 23.5t-22 55.5zM794 1417q0 33 22 57t60 24t60.5 -24t22.5 -57q0 -32 -22.5 -55.5t-60.5 -23.5t-60 23.5t-22 55.5z" />
<glyph unicode="&#x458;" d="M301 1082h510v-1082q0 -102 -27.5 -183t-80 -137.5t-128.5 -86.5t-173 -30q-57 0 -104.5 3.5t-102.5 13.5l8 99q18 -3 44.5 -5.5t54 -4t52.5 -2t40 -0.5q60 0 114 17t94.5 56.5t64.5 103t24 156.5v975h-390v107zM652 1379q0 37 20.5 63.5t69.5 26.5q48 0 70 -26.5 t22 -63.5q0 -35 -22 -61.5t-70 -26.5q-49 0 -69.5 26.5t-20.5 61.5z" />
<glyph unicode="&#x459;" d="M731 1082v-433h153q77 -1 137 -26t101 -68.5t62 -102t21 -126.5t-21 -127t-62 -103t-101 -69.5t-137 -26.5h-270v979h-286l1 -375q0 -67 -2.5 -137.5t-11.5 -137.5t-26.5 -126.5t-46.5 -104.5t-71.5 -71.5t-102.5 -26.5h-37l2 103h30q37 1 62.5 24.5t41.5 62.5t25 89.5 t13 106t4.5 112t0.5 106.5l1 478h520zM731 548v-448h153q52 1 89.5 20t62.5 50.5t37 72.5t12 85q0 43 -12 82.5t-37 69.5t-63 48.5t-89 19.5h-153z" />
<glyph unicode="&#x45a;" d="M251 652h343v430h117v-433h154q74 -1 130.5 -26.5t95 -69.5t58 -102.5t19.5 -124.5t-19.5 -125t-58 -103.5t-95 -70.5t-130.5 -27h-271v551h-343v-551h-117v1082h117v-430zM711 548v-448h154q49 1 83.5 20.5t57 51.5t33 73t10.5 83t-10.5 81t-33 69.5t-57.5 49.5t-83 20 h-154z" />
<glyph unicode="&#x45b;" d="M646 1249h-341v-376q57 104 152 166t217 63q89 0 157.5 -27.5t115 -80t71 -129t24.5 -174.5v-691h-120v691q0 72 -17 129t-51.5 96.5t-86.5 60.5t-122 21q-57 0 -109 -18t-96 -50t-78.5 -75.5t-56.5 -95.5v-759h-120v1249h-151v102h151v185h120v-185h341v-102z" />
<glyph unicode="&#x45c;" d="M522 496h-196v-496h-121v1082h121v-480h194l434 480h153l-480 -525l532 -557h-160zM636 1486h145l-230 -266h-99z" />
<glyph unicode="&#x45d;" d="M919 1082h121v-1082h-121v894l-611 -894h-119v1082h119v-895zM674 1223h-104l-218 266h144z" />
<glyph unicode="&#x45e;" d="M600 220l22 -59l391 921h136l-559 -1255q-22 -49 -52 -96t-71 -84.5t-94.5 -60.5t-122.5 -23q-24 0 -53 4.5t-49 9.5l14 100q17 -2 42.5 -4.5t42.5 -2.5q46 0 84 18t67.5 46.5t52 64t37.5 69.5l74 160l-486 1054h135zM919 1507q-2 -59 -23.5 -106.5t-59.5 -81t-90 -51.5 t-115 -18t-115.5 18t-91 51.5t-60 81t-23.5 106.5h102q3 -80 51.5 -125.5t136.5 -45.5q85 0 133.5 46t52.5 125h102z" />
<glyph unicode="&#x45f;" d="M309 1082v-981h610v981h121v-1082h-362v-353h-120v353h-369v1082h120z" />
<glyph unicode="&#x460;" d="M1146 1456l2 -1081q0 -73 -16.5 -144t-50.5 -126.5t-88 -90t-129 -34.5q-46 0 -83 14.5t-66 40.5t-50.5 61t-35.5 77q-14 -42 -35.5 -77t-50 -61t-65.5 -40.5t-83 -14.5q-75 0 -129 34.5t-88 90t-50.5 126.5t-16.5 144l2 1081h116l2 -1081q0 -47 8 -99t26.5 -95.5 t50 -71.5t79.5 -28q50 0 83 28t53 71.5t28.5 95.5t8.5 99l2 1081h120l1 -1081q0 -47 8.5 -99t28.5 -95.5t53 -71.5t83 -28q48 0 79 28t50 71.5t27 95.5t8 99l2 1081h116z" />
<glyph unicode="&#x461;" d="M1157 1082l1 -718q0 -75 -18 -145t-54 -123t-91 -85t-130 -32q-48 0 -86.5 14t-69 39.5t-52.5 60.5t-37 77q-15 -42 -37.5 -77t-52.5 -60.5t-68.5 -39.5t-85.5 -14q-76 0 -131 32t-91 85t-54 123t-18 145l1 718h118l1 -718q0 -50 9 -100.5t29.5 -91.5t54 -66.5 t81.5 -25.5q50 0 85 25.5t56.5 66.5t31.5 91.5t10 100.5v718h121l1 -718q0 -50 10 -100.5t31.5 -91.5t56.5 -66.5t86 -25.5q48 0 81 25.5t53.5 66.5t30 91.5t9.5 100.5v718h118z" />
<glyph unicode="&#x462;" d="M609 1127h-286v-305h299q103 -1 187 -29t144 -80.5t92.5 -128t32.5 -171.5q0 -95 -32.5 -171.5t-92.5 -130t-144 -82.5t-187 -29h-418v1127h-207v102h207v227h119v-227h286v-102zM323 720v-619h299q78 1 140 23.5t105.5 64t67 99t23.5 127.5q0 69 -23.5 125t-67 95.5 t-106 61.5t-139.5 23h-299z" />
<glyph unicode="&#x463;" d="M676 1079h-325v-408h310q86 -1 158.5 -24t125 -66t82 -104.5t29.5 -139.5t-29.5 -140t-82 -105.5t-125 -67.5t-158.5 -24h-430v1079h-198v101h198v368h120v-368h325v-101zM351 569v-468h310q61 1 111.5 17.5t87 46.5t56.5 73t20 97q0 53 -20 96t-56.5 73.5t-87 47.5 t-111.5 17h-310z" />
<glyph unicode="&#x464;" d="M260 812h178v71q0 71 9 143t28 138t48 123t70.5 99t95 66.5t120.5 24.5q87 0 151.5 -35.5t108 -96.5t67 -141.5t28.5 -169.5h-108q-9 66 -23.5 127.5t-42.5 109t-71.5 76t-109.5 28.5q-49 0 -87 -21t-66 -57t-46.5 -84t-30 -102.5t-16.5 -112.5t-5 -113v-73h319v-101 h-319v-137q0 -56 5 -113.5t16.5 -112.5t30 -103t46.5 -84t66 -57.5t87 -21.5q67 0 110.5 27.5t71 74.5t42 108.5t23.5 127.5h108q-5 -85 -28.5 -164t-67 -140.5t-108 -98t-151.5 -36.5q-67 0 -120.5 24.5t-95 66.5t-70.5 99t-48 122.5t-28 137t-9 143.5v137h-178v-711h-117 v1456h117v-644z" />
<glyph unicode="&#x465;" d="M945 499h-347v-9q0 -70 11 -142.5t38 -132t72.5 -97t116.5 -37.5q48 0 84 19t61 51.5t39.5 75t18.5 89.5h113q-1 -66 -25 -126.5t-66 -107t-99.5 -74.5t-125.5 -28q-97 0 -165 44.5t-110.5 116.5t-62 163.5t-19.5 185.5v9h-186v-499h-118v1082h118v-481h186q1 92 21 182 t62.5 161t110 114.5t163.5 43.5q73 0 131.5 -30.5t99.5 -81t63 -117t22 -138.5h-113q-3 49 -16.5 97t-38 85t-61 60t-87.5 23q-69 0 -114.5 -37t-72.5 -94.5t-38.5 -128.5t-12.5 -139h347v-102z" />
<glyph unicode="&#x466;" d="M905 475h-228v-475h-119v475h-215l-164 -475h-124l514 1456h112l510 -1456h-123zM380 581h488l-243 708z" />
<glyph unicode="&#x467;" d="M862 347h-178v-347h-120v347h-187l-146 -347h-124l461 1082h105l463 -1082h-125zM420 449h399l-160 374l-40 124l-40 -124z" />
<glyph unicode="&#x468;" d="M974 488h-137v-488h-98v488h-132l-118 -488h-120l125 488h-233v-488h-117v1456h117v-862h260l221 862h107l359 -1456h-120zM633 594h317l-156 669z" />
<glyph unicode="&#x469;" d="M975 345h-129v-345h-104v345h-134l-118 -345h-122l120 345h-233v-345h-118v1082h118v-631h270l219 631h103l362 -1082h-121zM644 451h296l-143 437l-2 12l-3 -16z" />
<glyph unicode="&#x46a;" d="M122 0l-1 407q1 175 84 268.5t251 95.5h60l-345 685h894l-331 -685h58q170 -2 252 -95.5t83 -268.5l-1 -407h-117l-1 407q-1 64 -12.5 112.5t-37 81.5t-66.5 50t-100 18h-107l-2 -5v-664h-117v669h-110q-59 -1 -100 -18t-66.5 -50t-37 -81.5t-11.5 -112.5l-1 -407h-118z M626 790l258 564h-530z" />
<glyph unicode="&#x46b;" d="M134 0l-1 222q1 187 90.5 278.5t256.5 93.5h4l-296 488h847l-296 -488q166 -2 253.5 -93.5t89.5 -278.5v-222h-118l-2 222q-1 140 -55.5 204.5t-171.5 65.5h-58l-8 -14v-478h-119v485l-4 7h-66q-117 -1 -171.5 -65.5t-55.5 -204.5l-1 -222h-118zM607 594h8l225 385h-459z " />
<glyph unicode="&#x46c;" d="M222 770h450l-249 686h673l-248 -686h32q69 -1 116.5 -26.5t77 -70t43 -103.5t13.5 -127l-2 -443h-100l-2 443q0 43 -5.5 83.5t-21 71.5t-44.5 50t-75 20h-69l-1 -3v-665h-100v665l-1 3h-70q-46 -1 -74.5 -20t-44.5 -50t-21.5 -71.5t-5.5 -83.5l-2 -443h-100l-2 443 q0 66 12.5 123t40.5 102h-220v-668h-108v1456h108v-686zM760 826l178 528h-357z" />
<glyph unicode="&#x46d;" d="M397 0l-2 263q1 68 14 124.5t42 99.5h-222v-487h-110v1082h110v-493h430l-224 493h658l-224 -494q67 -3 115.5 -27.5t79.5 -67t46 -101.5t15 -129l-2 -263h-100l-2 263q0 48 -7.5 89t-26 71t-50.5 47t-81 17h-33l-9 -20h-2v-467h-101v476l-5 11h-42q-49 0 -80.5 -17 t-50.5 -47t-26.5 -71t-7.5 -89l-1 -263h-101zM764 600l165 384h-331z" />
<glyph unicode="&#x46e;" d="M539 797q79 0 148 16t120 49.5t80.5 86.5t29.5 128q0 70 -28 121.5t-76 86t-113 52t-138 17.5h-322v102h322q95 0 181 -24t151.5 -71.5t104 -119t38.5 -168.5q0 -62 -21 -113t-57 -92t-86 -71.5t-109 -49.5q65 -17 119.5 -46.5t93.5 -73t60.5 -101t21.5 -130.5 q0 -103 -43 -179t-114 -126t-161.5 -75t-185.5 -25h-67q-37 0 -68.5 -7.5t-54.5 -23t-36 -39.5t-12 -58q0 -37 17 -67t42.5 -52.5t55 -39t55.5 -26.5l-45 -87q-42 16 -84.5 41.5t-77 60.5t-56 78.5t-22.5 95.5q-1 60 21.5 102.5t62 69.5t92.5 40t114 13h63q72 0 141 18.5 t123 55t87 93t33 133.5q0 85 -32 142.5t-86.5 93t-127.5 51t-154 15.5h-132v103h132zM565 1717l173 185h106v-15l-236 -249h-86l-236 248v16h107z" />
<glyph unicode="&#x46f;" d="M551 601q63 0 122 9.5t104 32t72.5 60.5t27.5 95q0 50 -27 84.5t-70 56t-97 31t-109 9.5h-292v103h292q78 0 153.5 -16.5t135.5 -51t97 -89t37 -131.5q0 -46 -16.5 -83.5t-45 -67.5t-68 -53t-85.5 -38q51 -13 94.5 -34t75 -51.5t49.5 -70.5t18 -92q0 -83 -40.5 -142 t-105 -97t-145 -56t-160.5 -18h-45q-37 0 -68.5 -7.5t-54.5 -23t-36 -39.5t-12 -58q0 -38 17 -67.5t42.5 -52.5t55.5 -39t56 -26l-45 -87q-42 16 -85 42t-77.5 60.5t-56 78t-22.5 95.5q0 60 22.5 102.5t62 69.5t92.5 40t113 13h41q57 0 115.5 11t106.5 36t78.5 64.5 t30.5 96.5q0 61 -30.5 99.5t-80 60.5t-112 30t-125.5 8h-131v103h131zM583 1388l173 185h106v-15l-236 -249h-86l-236 248v16h107z" />
<glyph unicode="&#x470;" d="M679 474q75 9 134 43.5t100 89t63.5 128t22.5 160.5l1 561h118l1 -561q-1 -112 -32 -204.5t-88 -160.5t-138 -109t-182 -50v-371h-119v371q-101 9 -181.5 50.5t-137 109.5t-87 160t-31.5 204v561h119l1 -561q0 -87 22 -160t63 -127.5t99.5 -89t132.5 -43.5v981h119v-982z " />
<glyph unicode="&#x471;" d="M674 1082v-998q92 12 155 59t102 116t55.5 152t16.5 167q-1 131 -30 257.5t-78 246.5h129q47 -105 73 -231t26 -272q0 -109 -23.5 -212t-77 -185t-139 -135.5t-209.5 -63.5v-426h-118v427q-108 11 -187.5 61t-131.5 130t-77.5 186.5t-25.5 231.5v489h118l1 -491 q0 -101 18.5 -188.5t55.5 -154t94 -109t135 -54.5v997h118z" />
<glyph unicode="&#x472;" d="M1099 631q-1 -74 -13 -151.5t-37.5 -150t-64.5 -136t-92.5 -111t-123.5 -75t-157 -27.5t-156.5 27.5t-124 75t-94 111.5t-65 136.5t-38 149.5t-13.5 151v192q1 74 13.5 151.5t37.5 150t64.5 136.5t93.5 112t123.5 75.5t156.5 27.5t157 -27.5t124.5 -75t93.5 -111.5 t64.5 -136.5t37.5 -150t13 -152.5v-192zM238 777h743v48q-1 58 -9 121t-26 123t-46 114.5t-69.5 95.5t-96.5 65t-125 24t-124.5 -24.5t-95.5 -65.5t-69.5 -95.5t-46.5 -114.5t-26 -123t-9 -120v-48zM981 676h-743v-45q1 -58 9.5 -120.5t26.5 -123t46.5 -115t69.5 -95.5 t96 -65.5t125 -24.5q71 0 125.5 24.5t95.5 65.5t69.5 95.5t46 115t25 123t8.5 120.5v45z" />
<glyph unicode="&#x473;" d="M117 557q1 110 34 209t94.5 173.5t151 118.5t202.5 44q114 0 203.5 -44t151.5 -118.5t95 -173.5t34 -209v-33q-1 -110 -33.5 -209t-94.5 -173.5t-151 -118t-203 -43.5t-203.5 43.5t-151.5 118t-95 173.5t-34 209v33zM601 81q84 0 149 33.5t110.5 90.5t71 131t30.5 155 h-724q4 -81 30 -155.5t71.5 -131t111.5 -90t150 -33.5zM599 1000q-83 0 -148 -33.5t-111 -90t-71.5 -130t-30.5 -153.5h724q-5 80 -31.5 153.5t-72 130t-111 90t-148.5 33.5z" />
<glyph unicode="&#x474;" d="M568 255l31 -110l32 110l305 950q21 66 47.5 116t61.5 84t80 52t103 18h28l-1 -108h-12q-40 0 -70 -13t-53 -37t-40 -58t-32 -77l-390 -1182h-117l-489 1456h134z" />
<glyph unicode="&#x475;" d="M497 271l41 -140l43 140l212 626q34 99 90 152t135 52q26 -1 49.5 -5t46.5 -17l-17 -95q-24 12 -60 12q-24 1 -44 -9t-36 -26.5t-28.5 -38t-21.5 -45.5l-321 -877h-97l-404 1082h125z" />
<glyph unicode="&#x476;" d="M568 255l31 -110l32 110l305 950q21 66 47.5 116t61.5 84t80 52t103 18h28l-1 -108h-12q-40 0 -70 -13t-53 -37t-40 -58t-32 -77l-390 -1182h-117l-489 1456h134zM520 1547h-121l-302 266h153zM763 1547h-109l-250 266h142z" />
<glyph unicode="&#x477;" d="M497 271l41 -140l43 140l212 626q34 99 90 152t135 52q26 -1 49.5 -5t46.5 -17l-17 -95q-24 12 -60 12q-24 1 -44 -9t-36 -26.5t-28.5 -38t-21.5 -45.5l-321 -877h-97l-404 1082h125zM467 1252h-121l-302 266h153zM710 1252h-109l-250 266h142z" />
<glyph unicode="&#x478;" d="M623 549q0 -129 -16.5 -234.5t-51 -179.5t-87.5 -114.5t-125 -40.5q-71 0 -122 40.5t-84 114.5t-49 179.5t-16 234.5v357q0 129 16 234.5t49 180t83.5 115t121.5 40.5q72 0 125 -40.5t87.5 -115t51.5 -179.5t17 -235v-357zM504 926q0 91 -8 171.5t-26.5 141.5t-50 96.5 t-77.5 35.5t-76.5 -35.5t-49 -96.5t-26 -141.5t-8.5 -171.5v-395q1 -91 9 -172.5t26.5 -142.5t49 -96.5t76.5 -35.5t77 35.5t50 96.5t26.5 142.5t7.5 172.5v395zM924 339l1 -16l153 759h112l-271 -1256q-13 -48 -31 -94.5t-45 -83t-63.5 -59.5t-86.5 -23q-18 0 -41 4t-38 9 l1 97q14 -2 33.5 -4.5t33.5 -2.5q31 0 54 18t40 46.5t29.5 64t21.5 69.5l37 161l-189 1054h111z" />
<glyph unicode="&#x479;" d="M65 558q0 113 16.5 212.5t52 173t91 116t133.5 42.5q79 0 134.5 -42.5t91 -116t52.5 -172.5t17 -213v-35q0 -113 -16.5 -212t-52 -172.5t-91 -116t-134.5 -42.5q-78 0 -134 42.5t-91 116t-52 172.5t-17 212v35zM924 339v-18l155 761h111l-271 -1256q-13 -48 -31 -94.5 t-44.5 -83t-63 -59.5t-86.5 -23q-19 0 -41.5 4t-38.5 9l2 97q13 -2 33 -4.5t34 -2.5q31 0 54 18t40 46.5t29.5 64t21.5 69.5l37 163l-189 1052h111zM184 523q0 -81 8 -160t27.5 -141.5t53 -101.5t86.5 -39t86.5 39t53 101.5t27 141.5t7.5 160v36q0 80 -7.5 159t-27 141.5 t-53.5 101.5t-87 39q-52 0 -85.5 -39t-53 -101.5t-27.5 -141.5t-8 -159v-36z" />
<glyph unicode="&#x47a;" d="M669 1248h-119v346h119v-346zM669 -143h-119v351h119v-351zM1103 631q-1 -74 -13 -151.5t-37.5 -150t-64.5 -136t-92.5 -111t-123.5 -75t-157 -27.5q-86 0 -156 27.5t-124.5 75t-94 111.5t-65 136.5t-38 149.5t-13.5 151v192q1 74 13.5 151.5t37.5 150t64.5 136.5 t93.5 112t123.5 75.5t156.5 27.5t157 -27.5t124.5 -75t93.5 -111.5t64.5 -136.5t37.5 -150t13 -152.5v-192zM985 825q-1 58 -9 121t-26 123t-46.5 114.5t-69.5 95.5t-96 65t-125 24t-124.5 -24.5t-95.5 -65.5t-69.5 -95.5t-46.5 -114.5t-26 -123t-9 -120v-194 q1 -58 9.5 -120.5t26.5 -123t46.5 -115t69.5 -95.5t96 -65.5t125 -24.5q71 0 125.5 24.5t95.5 65.5t69.5 95.5t46 115t25 123t8.5 120.5v194z" />
<glyph unicode="&#x47b;" d="M675 875h-120v362h120v-362zM675 -167h-120v371h120v-371zM131 557q1 110 34 209t94.5 173.5t151 118.5t202.5 44q114 0 203.5 -44t151.5 -118.5t95 -173.5t34 -209v-33q-1 -110 -33.5 -209t-94.5 -173.5t-151 -118t-203 -43.5t-203.5 43.5t-151.5 118t-95 173.5t-34 209 v33zM251 524q0 -86 24 -166t70 -141.5t113.5 -98.5t156.5 -37q88 0 155.5 37t113 98.5t69.5 141.5t24 166v33q0 85 -24 165t-70 141.5t-114 99t-156 37.5t-155.5 -37.5t-113 -99t-69.5 -141.5t-24 -165v-33z" />
<glyph unicode="&#x47c;" d="M833 1454q82 -2 142.5 -37t99.5 -93t58 -134t19 -159v-647q0 -77 -17.5 -149.5t-54 -129.5t-92.5 -91.5t-134 -34.5q-46 0 -83.5 14.5t-67 40t-51 60.5t-36.5 76q-15 -41 -36.5 -76t-51 -60.5t-67 -40t-83.5 -14.5q-78 0 -134 34.5t-92.5 91.5t-54 129.5t-17.5 149.5v647 q0 83 19 159t58 134t99 93t143 37l1 -101q-56 -2 -94 -31t-61.5 -74.5t-34 -102t-10.5 -114.5v-647q0 -51 9 -104.5t29.5 -98t54.5 -73t85 -28.5t85 28t54.5 71t29.5 95.5t9 100.5l1 509h118l1 -509q0 -48 9 -100.5t30 -95.5t55 -71t84 -28q51 0 85 28.5t55 73t30 98 t9 104.5v647q0 58 -11 114.5t-34.5 102t-61.5 74.5t-93 31v101zM975 1680v-84h-30q-42 0 -77 12t-66 29.5t-58 37.5t-53.5 37.5t-52.5 29t-54 11.5q-31 0 -52.5 -12.5t-35 -33t-20.5 -47t-8 -54.5l-2 -18h-88l-1 31q0 47 13 87.5t39.5 70.5t64.5 47.5t87 17.5q34 0 63.5 -12 t57 -29.5t54.5 -38.5t56 -39t62.5 -30t73.5 -13h27zM540 1379q32 34 45.5 69t13.5 74l2 97h94l1 -102q0 -26 -8.5 -53t-22.5 -52t-34 -45.5t-43 -33.5z" />
<glyph unicode="&#x47d;" d="M846 1099q80 -2 138.5 -32.5t97.5 -83.5t58 -124.5t19 -155.5v-347q0 -77 -17.5 -145.5t-53.5 -120t-91 -81.5t-131 -30q-93 0 -152.5 48.5t-89.5 126.5q-30 -78 -89.5 -126.5t-152.5 -48.5q-75 0 -130.5 30t-91.5 81.5t-53.5 120t-17.5 145.5v347q0 84 19 155.5 t58 124.5t97.5 83.5t138.5 32.5v-102q-53 -2 -89.5 -26t-59.5 -64t-33.5 -93t-10.5 -111v-347q0 -51 9 -100.5t29.5 -88.5t53.5 -63t81 -24q50 0 84.5 23.5t56.5 61t31.5 85.5t10.5 97v277h119v-277q0 -49 10 -97t31.5 -85.5t56 -61t84.5 -23.5q48 0 81.5 24t53.5 63 t29.5 88.5t9.5 100.5v347q0 58 -10.5 111t-34 93t-60 64t-89.5 26v102zM999 1346v-85h-31q-65 1 -115 25.5t-93.5 54t-83.5 53.5t-85 24q-32 0 -54.5 -11.5t-37.5 -31.5t-23 -46.5t-9 -56.5l-1 -18h-89l-1 31q0 48 14 89t41.5 70.5t67 46.5t89.5 17q35 0 66 -12t59.5 -29.5 t57 -38.5t59 -39t65 -30.5t76.5 -12.5h28zM537 1037q33 34 47.5 68.5t14.5 74.5l1 97h95l1 -102q-1 -27 -9.5 -54t-23 -51.5t-34.5 -45t-43 -33.5z" />
<glyph unicode="&#x47e;" d="M339 1778h608l1 -81h-258v-114h-107v114h-244v81zM1153 1456l2 -1081q0 -73 -16.5 -144t-50.5 -126.5t-88 -90t-129 -34.5q-46 0 -83 14.5t-66 40.5t-50.5 61t-35.5 77q-14 -42 -35.5 -77t-50 -61t-65.5 -40.5t-83 -14.5q-75 0 -129 34.5t-88 90t-50.5 126.5t-16.5 144 l2 1081h116l2 -1081q0 -47 8 -99t26.5 -95.5t50 -71.5t79.5 -28q50 0 83 28t53 71.5t28.5 95.5t8.5 99l2 1081h120l1 -1081q0 -47 8.5 -99t28.5 -95.5t53 -71.5t83 -28q48 0 79 28t50 71.5t27 95.5t8 99l2 1081h116z" />
<glyph unicode="&#x47f;" d="M301 1456h643l2 -81h-276v-130h-109v130h-261zM1157 1082l1 -718q0 -75 -18 -145t-54 -123t-91 -85t-130 -32q-48 0 -86.5 14t-69 39.5t-52.5 60.5t-37 77q-15 -42 -37.5 -77t-52.5 -60.5t-68.5 -39.5t-85.5 -14q-76 0 -131 32t-91 85t-54 123t-18 145l1 718h118l1 -718 q0 -50 9 -100.5t29.5 -91.5t54 -66.5t81.5 -25.5q50 0 85 25.5t56.5 66.5t31.5 91.5t10 100.5v718h121l1 -718q0 -50 10 -100.5t31.5 -91.5t56.5 -66.5t86 -25.5q48 0 81 25.5t53.5 66.5t30 91.5t9.5 100.5v718h118z" />
<glyph unicode="&#x480;" d="M752 -366h-119v348q-80 8 -145.5 39.5t-117.5 80t-90.5 111.5t-64 135t-38 149.5t-12.5 155.5v160q0 81 13.5 162t41 154.5t68 137t95.5 110t124 73.5t152 27q106 0 190 -35.5t142 -99t90 -150.5t35 -190h-119q-6 79 -29 147.5t-64 118.5t-102 78.5t-143 28.5 q-66 0 -119.5 -23.5t-95 -64t-71.5 -95t-49.5 -117t-29 -129t-9.5 -131.5v-162q0 -65 9.5 -132.5t29.5 -130.5t51.5 -119t75 -98t99.5 -67t127 -26h75v-446z" />
<glyph unicode="&#x481;" d="M741 -366h-119v348q-102 10 -180 57.5t-130.5 120.5t-79.5 166t-27 194v42q0 104 30 201.5t88 172.5t144 120.5t199 45.5q89 0 163 -29t127.5 -81t84 -122.5t32.5 -154.5h-115q-2 61 -23.5 113.5t-60 90.5t-91.5 59.5t-117 21.5q-89 0 -153 -38.5t-105.5 -100.5 t-62 -140.5t-20.5 -158.5v-42q0 -83 20 -161t62 -139.5t106.5 -99.5t153.5 -40h74v-446z" />
<glyph unicode="&#x482;" d="M588 432l289 -172l-54 -95l-291 170l-186 -335h-135l225 398l-289 171l53 94l293 -171l220 394l-290 171l55 96l291 -171l203 360h132l-241 -422l293 -171l-58 -94l-288 170z" />
<glyph unicode="&#x483;" horiz-adv-x="0" d="M296 1339v-123h-112v202h510v108h110v-187h-508z" />
<glyph unicode="&#x484;" horiz-adv-x="0" d="M271 1395q48 0 89.5 12.5t79 30.5t72.5 39t70 38.5t72 29.5t79 12q52 0 95.5 -15t74.5 -44t48.5 -70.5t18.5 -94.5v-30h-92v18q-1 69 -42 107.5t-107 38.5q-53 0 -102.5 -24t-102.5 -53.5t-114 -54t-137 -25.5h-30v85h28z" />
<glyph unicode="&#x485;" horiz-adv-x="0" d="M378 1500v133h138v-140l62 -121l-57 -46z" />
<glyph unicode="&#x486;" horiz-adv-x="0" d="M535 1326l-56 46l61 121v140h139v-133z" />
<glyph unicode="&#x488;" horiz-adv-x="0" d="M468 1267q1 43 17 77.5t43 59t65 38t85 13.5q46 0 84 -13.5t65.5 -38t43.5 -59t18 -77.5h-112q-2 21 -8 39t-18 32t-30 22t-43 8q-51 0 -73 -30t-24 -71h-113zM1059 990q1 42 17 77t43.5 59.5t65.5 38t84 13.5t84 -13.5t66 -38t44 -59t18 -77.5h-113q-2 21 -8 39 t-17.5 32t-30 22t-43.5 8q-50 0 -72 -30t-24 -71h-114zM1246 487q1 42 17 77t43.5 59.5t65.5 38t84 13.5q93 0 150 -51t61 -137h-112q-2 21 -8 39t-17.5 32t-30 22t-43.5 8q-50 0 -72.5 -30t-24.5 -71h-113zM1049 -32q1 42 17 77t43.5 59.5t65.5 38t84 13.5q93 0 150 -51 t61 -137h-112q-2 21 -8 39t-17.5 32t-30 22t-43.5 8q-50 0 -72.5 -30t-24.5 -71h-113zM473 -316q1 43 17 78t43 59.5t65 37.5t85 13q46 0 84 -13t65.5 -37.5t43.5 -59.5t18 -78h-112q-3 42 -26 71.5t-73 29.5t-72.5 -29.5t-24.5 -71.5h-113zM-105 990q2 43 18 77.5t43.5 59 t65.5 38t84 13.5t84 -13.5t65.5 -38t43.5 -59t18 -77.5h-112q-2 21 -8 39t-18 32t-30 22t-43 8q-51 0 -73 -30t-24 -71h-114zM-281 487q2 42 18 77t43.5 59.5t65 38t83.5 13.5q93 0 150 -51t61 -137h-112q-2 21 -7.5 39t-17.5 32t-30 22t-44 8q-50 0 -72 -30t-25 -71h-113z M-115 -32q2 42 18 77t43.5 59.5t65 38t83.5 13.5t84 -13.5t66 -38t44 -59t18 -77.5h-113q-2 21 -8 39t-17.5 32t-30 22t-43.5 8q-50 0 -72 -30t-24 -71h-114z" />
<glyph unicode="&#x489;" horiz-adv-x="0" d="M1105 -60l11 -14l-122 -339h-96l70 353h137zM910 1126l-12 14l122 338h96l-70 -352h-136zM1588 631l13 12l333 -124v-98l-346 71v139zM424 433l-13 -12l-333 124v98l346 -71v-139zM1348 1002l2 16l321 153l68 -68l-294 -200zM664 21l-2 -17l-320 -153l-69 69l294 200z M524 860l-17 2l-148 326l65 69l198 -299zM1486 161l17 -2l149 -325l-66 -71l-197 299z" />
<glyph unicode="&#x48a;" d="M939 1456h118v-1456h-118l1 1221l-651 -1221h-118v1456h118l-1 -1220zM893 1831q-2 -59 -23.5 -106.5t-59.5 -81t-90 -51.5t-115 -18t-115.5 18t-91 51.5t-60 81t-23.5 106.5h102q3 -80 51.5 -125.5t136.5 -45.5q85 0 133.5 46t52.5 125h102zM1177 4q0 -44 -9.5 -88 t-27 -87t-43.5 -82.5t-60 -72.5l-76 48q88 125 88 279v156h128v-153z" />
<glyph unicode="&#x48b;" d="M919 1082h121v-1082h-121v894l-611 -894h-119v1082h119v-895zM901 1494q-2 -59 -23.5 -106.5t-59.5 -81t-90 -51.5t-115 -18t-115.5 18t-91 51.5t-60 81t-23.5 106.5h102q3 -80 51.5 -125.5t136.5 -45.5q85 0 133.5 46t52.5 125h102zM1160 4q0 -44 -9.5 -88t-27 -87 t-43.5 -82.5t-60 -72.5l-76 48q88 125 88 279v156h128v-153z" />
<glyph unicode="&#x48c;" d="M609 1127h-286v-305h299q103 -1 187 -29t144 -80.5t92.5 -128t32.5 -171.5q0 -95 -32.5 -171.5t-92.5 -130t-144 -82.5t-187 -29h-418v1127h-207v102h207v227h119v-227h286v-102zM323 720v-619h299q78 1 140 23.5t105.5 64t67 99t23.5 127.5q0 69 -23.5 125t-67 95.5 t-106 61.5t-139.5 23h-299z" />
<glyph unicode="&#x48d;" d="M615 833h-307v-162h351q87 -1 161.5 -23.5t129.5 -65t86.5 -104.5t31.5 -141q0 -80 -31.5 -142t-86 -105.5t-129.5 -66.5t-162 -23h-471v833h-185v102h185v147h120v-147h307v-102zM308 569v-468h351q61 1 114 16.5t92 45.5t61 73t22 99q0 55 -22.5 98t-61.5 73 t-91.5 46.5t-113.5 16.5h-351z" />
<glyph unicode="&#x48e;" d="M1025 505l-86 -52l-318 421l86 52zM336 600v-600h-120v1456h458q96 -2 179.5 -32t146 -85.5t98.5 -134.5t36 -179t-36 -178.5t-98.5 -133t-146.5 -83.5t-179 -30h-338zM336 701h338q72 1 134 24t108 64t72.5 100t26.5 134t-26 136t-72 103.5t-108 66t-135 25.5h-338v-653 z" />
<glyph unicode="&#x48f;" d="M1016 -31l-79 -63l-305 360l79 62zM1068 530q0 -105 -25.5 -204.5t-78 -176t-132.5 -123t-190 -46.5q-101 0 -185 39t-141 113v-548h-120v1498h112l5 -148q57 80 140 124t187 44q111 0 192 -45.5t133 -122t77.5 -176t25.5 -207.5v-21zM948 551q0 81 -18 161t-58 143.5 t-103.5 103t-155.5 39.5q-52 0 -97.5 -14.5t-83 -41t-67 -63t-49.5 -80.5v-536q42 -84 120 -133t179 -49q91 0 154.5 40t103 103.5t57.5 144t18 161.5v21z" />
<glyph unicode="&#x490;" d="M1089 1354h-774v-1354h-120v1456h774v354h120v-456z" />
<glyph unicode="&#x491;" d="M1060 979h-747v-979h-123v1082h748v345h122v-448z" />
<glyph unicode="&#x492;" d="M626 707h-316v-707h-120v707h-176v102h176v647h874v-102h-754v-545h316v-102z" />
<glyph unicode="&#x493;" d="M573 502h-253v-502h-123v502h-236v102h236v478h856v-103h-733v-375h253v-102z" />
<glyph unicode="&#x494;" d="M1087 1354h-754v-518h207q136 0 243 -39.5t181.5 -113.5t114 -179.5t39.5 -238.5q0 -114 -30 -211.5t-88 -169.5t-143 -114t-196 -45l-1 98q88 2 152 38t105.5 96t61 139.5t19.5 168.5q0 108 -30.5 194t-89 146t-144 92.5t-194.5 32.5h-207v-730h-120v1456h874v-102z" />
<glyph unicode="&#x495;" d="M1059 979h-733v-354h210q111 0 210.5 -27.5t175.5 -83.5t121 -143t46 -206q0 -73 -28 -143.5t-80 -129t-126 -101t-164 -60.5l-33 93q70 16 127 46t97.5 73t63 98.5t23.5 123.5q1 95 -35.5 162t-97 109.5t-139.5 62.5t-161 20h-210v-519h-123v1082h856v-103z" />
<glyph unicode="&#x496;" d="M748 686h-75v-686h-116v686h-79l-290 -686h-144l326 730l-295 726h136l257 -668h89v668h116v-668h85l256 668h137l-295 -726l326 -730h-144zM1245 -355h-119v468h119v-468z" />
<glyph unicode="&#x497;" d="M749 500h-85v-500h-117v500h-86l-302 -500h-142l347 556l-305 526h136l262 -475h90v475h117v-475h91l262 475h137l-307 -526l349 -556h-144zM1219 -355h-119v468h119v-468z" />
<glyph unicode="&#x498;" d="M608 794q79 0 147.5 16.5t119.5 50.5t80.5 87.5t29.5 128.5q0 73 -29.5 128.5t-80.5 93t-121 56.5t-151 19q-71 0 -136.5 -20.5t-116 -59t-81 -94t-32.5 -125.5h-120q2 94 43 168.5t107.5 126t153.5 79t182 27.5q103 0 195 -24t160 -74t107.5 -126t39.5 -179 q0 -61 -20.5 -112.5t-56.5 -92.5t-85 -72t-107 -51q64 -18 118 -47.5t92.5 -72.5t60 -100.5t21.5 -129.5q0 -104 -43.5 -182t-115.5 -130t-167 -78t-199 -26q-96 0 -186 26.5t-160.5 79.5t-114 132.5t-45.5 186.5h120q2 -74 33 -134t83.5 -102t122 -65t147.5 -23 q82 0 155.5 19.5t129 58.5t88 97t32.5 136q0 85 -32 142t-86.5 92t-127 50.5t-154.5 15.5h-184v103h184zM662 -447h-119v468h119v-468z" />
<glyph unicode="&#x499;" d="M636 604q59 0 116.5 8.5t102.5 30.5t73 59t28 94q0 55 -28 94t-74 63.5t-104.5 35.5t-118.5 11q-56 0 -114.5 -12.5t-107.5 -38.5t-80.5 -65.5t-32.5 -93.5h-122q5 79 46 137.5t105 97t143.5 57.5t162.5 19q84 0 164.5 -16t143 -53t100 -95.5t37.5 -142.5 q0 -46 -17.5 -83.5t-47 -67t-69.5 -51.5t-86 -37q52 -13 96 -34t76.5 -52.5t51 -74t18.5 -97.5q0 -57 -19 -102t-52 -80t-77.5 -60.5t-96.5 -42t-108.5 -24t-112.5 -7.5q-55 0 -111 8t-107.5 24.5t-97.5 43t-80.5 63t-56 84t-24.5 106.5h122q0 -58 33 -101t84 -71.5 t114 -42.5t124 -14t122.5 11.5t111 37t80.5 66t31 99.5q0 64 -30.5 104t-79.5 62.5t-109.5 30.5t-121.5 8h-206v104h206zM687 -441h-119v468h119v-468z" />
<glyph unicode="&#x49a;" d="M515 685h-187v-685h-118v1456h118v-670h186l505 670h140l-542 -716l584 -740h-148zM1216 -352h-119v468h119v-468z" />
<glyph unicode="&#x49b;" d="M522 496h-196v-496h-121v1082h121v-480h194l434 480h153l-480 -525l532 -557h-160zM1176 -365h-119v468h119v-468z" />
<glyph unicode="&#x49c;" d="M1160 1456l-386 -703l443 -753h-149l-412 691h-74v-286h-101v286h-136v-691h-119v1456h119v-664h136v282h101v-282h82l353 664h143z" />
<glyph unicode="&#x49d;" d="M1077 1082l-344 -522l394 -560h-157l-332 496h-75v-238h-101v238h-130v-496h-121v1082h121v-480h130v241h101v-241h77l287 480h150z" />
<glyph unicode="&#x49e;" horiz-adv-x="1249" d="M535 685h-187v-685h-118v1116h-206v102h206v238h118v-238h288v-102h-288v-330h186l505 670h140l-542 -716l584 -740h-148z" />
<glyph unicode="&#x49f;" horiz-adv-x="1249" d="M510 547l-153 -137v-410h-121v1240h-191v102h191v194h121v-194h300v-102h-300v-692l129 127l439 407h153l-483 -456l533 -626h-154z" />
<glyph unicode="&#x4a0;" d="M642 685h-127v-685h-117v1354h-341v102h458v-670h130l363 670h135l-391 -718l428 -738h-144z" />
<glyph unicode="&#x4a1;" d="M684 496h-149v-496h-118v979h-329v103h447v-480h150l308 480h148l-362 -523l406 -559h-154z" />
<glyph unicode="&#x4a2;" d="M1069 0h-113v698h-684v-698h-113v1456h113v-654h684v654h113v-1456zM1143 -355h-119v468h119v-468z" />
<glyph unicode="&#x4a3;" d="M1040 0h-121v496h-611v-496h-119v1082h119v-485h611v485h121v-1082zM1133 -355h-119v468h119v-468z" />
<glyph unicode="&#x4a4;" d="M206 787h470v669h513v-102h-398v-1354h-115v685h-470v-685h-116v1456h116v-669z" />
<glyph unicode="&#x4a5;" d="M220 597h476v485h488v-103h-369v-979h-119v496h-476v-496h-119v1082h119v-485z" />
<glyph unicode="&#x4a6;" d="M731 835h55q109 -1 184 -50t121.5 -129t67.5 -182.5t21 -209.5q0 -97 -17 -192.5t-56 -172t-102.5 -124.5t-155.5 -51l-1 98q44 1 77 21.5t57 54t39 77.5t24 92.5t12.5 99t3.5 97.5q0 55 -5.5 111t-18 107.5t-33 96.5t-51 78t-72 52t-95.5 20h-55v-729h-116v1354h-395 v-1354h-115v1456h626v-621z" />
<glyph unicode="&#x4a7;" d="M695 625h54q95 -1 167 -36.5t121 -97t74 -145.5t25 -181q0 -60 -16 -128.5t-51.5 -130t-91.5 -109t-136 -65.5l-31 92q58 18 97.5 52.5t63.5 80.5t35 99.5t11 108.5q0 74 -16 138t-49 112t-83.5 75.5t-119.5 28.5h-54v-519h-117v979h-329v-979h-117v1082h563v-457z" />
<glyph unicode="&#x4a8;" d="M1099 -26q-80 1 -150 18t-132 49q-49 -30 -106 -46t-123 -16q-82 0 -150 27.5t-121 75.5t-92.5 112.5t-65 139t-38.5 155.5t-13 161v260q0 67 9 134.5t27.5 130t46 117t66 95.5t87 64.5t108.5 25.5l2 -105q-63 -2 -106 -45t-70 -109t-38.5 -147t-11.5 -159v-262 q0 -65 9 -132t27 -130t47 -118.5t69 -97t91.5 -65.5t116.5 -24q70 0 128 26q-55 46 -98 104.5t-73 127.5t-45.5 147t-15.5 161v310q0 56 7.5 115.5t22.5 116t38.5 107t57 88.5t77 60t98.5 22t98.5 -22t77.5 -59.5t58 -87.5t39.5 -106.5t23 -116.5t7.5 -117v-321 q0 -75 -11.5 -148.5t-34.5 -141t-57 -127.5t-79 -107q43 -17 90.5 -26.5t101.5 -9.5v-104zM604 647q0 -153 52 -277t152 -200q41 39 71.5 92t50.5 114t30 128t10 134v323q0 63 -8.5 133.5t-29.5 130.5t-56.5 99.5t-90.5 39.5q-37 0 -64.5 -19t-47.5 -50t-33.5 -72t-21 -85.5 t-11 -90.5t-3.5 -86v-314z" />
<glyph unicode="&#x4a9;" d="M1148 -12q-165 2 -298 58q-55 -32 -118.5 -49.5t-135.5 -17.5q-113 0 -202 46.5t-151 125.5t-95 182.5t-34 216.5v77q0 88 21.5 172.5t64.5 150.5t106.5 107.5t149.5 44.5v-105q-58 -2 -99.5 -35.5t-68.5 -86t-40.5 -117.5t-13.5 -129v-79q0 -92 24 -176.5t69.5 -149 t113 -103t155.5 -38.5q38 0 73 6.5t67 18.5q-109 75 -171 190t-63 261v106q1 78 18.5 156t54.5 140.5t94 101.5t136 39q80 0 137.5 -42.5t94 -108.5t54.5 -147.5t18 -159.5v-104q-1 -124 -43 -232t-119 -186q46 -14 96 -22t105 -8v-104zM622 557q1 -132 58.5 -230 t157.5 -157q73 63 111.5 160.5t39.5 209.5v107q0 55 -9.5 116.5t-31 113.5t-56.5 86t-87 34q-53 0 -88 -30.5t-56 -79t-30 -107t-9 -113.5v-110z" />
<glyph unicode="&#x4aa;" d="M1099 442q-12 -98 -49 -182.5t-98 -147t-144.5 -97.5t-187.5 -35q-87 0 -157.5 26.5t-125 72.5t-94.5 108t-66 133.5t-38.5 148.5t-13.5 153v211q1 76 13.5 153t38.5 148.5t66 133.5t94.5 108.5t125 73t157.5 26.5q106 0 189.5 -35t144.5 -97.5t97.5 -147.5t47.5 -185 h-119q-12 75 -38.5 141t-70.5 115.5t-106 78t-145 28.5q-71 0 -126 -24t-96.5 -64t-70.5 -93.5t-47 -113.5t-26.5 -122.5t-8.5 -121.5v-213q0 -59 8.5 -122t26.5 -123t47 -113.5t70.5 -94t96.5 -64.5t126 -24q84 0 146.5 27.5t106 76.5t70 115t37.5 142h119zM670 -442h-119 v468h119v-468z" />
<glyph unicode="&#x4ab;" d="M632 81q60 0 114.5 17.5t96.5 50.5t68.5 79.5t30.5 105.5h115q-4 -77 -40 -142t-94 -112t-133 -73.5t-158 -26.5q-119 0 -207 45t-146.5 120t-88 172.5t-29.5 202.5v42q0 105 29.5 202.5t88 172.5t146.5 120t206 45q90 0 166.5 -28.5t133 -80t89.5 -122t37 -154.5h-115 q-3 61 -28 113t-66 90t-96.5 59t-120.5 21q-94 0 -160.5 -38t-108.5 -100t-61.5 -140.5t-19.5 -159.5v-42q0 -82 19.5 -161t61.5 -140.5t108.5 -99.5t161.5 -38zM688 -442h-119v468h119v-468z" />
<glyph unicode="&#x4ac;" d="M1139 1351h-464v-1351h-117l1 1351h-465v105h1045v-105zM768 -355h-119v468h119v-468z" />
<glyph unicode="&#x4ad;" d="M1140 980h-461v-980h-121v980h-445v102h1027v-102zM772 -355h-119v468h119v-468z" />
<glyph unicode="&#x4ae;" d="M600 662l389 794h136l-467 -908l-2 -548h-112l-2 548l-467 908h139z" />
<glyph unicode="&#x4af;" d="M1033 1082h126l-473 -1055v-442h-122v441l-474 1056h126l364 -820l46 -142l47 142z" />
<glyph unicode="&#x4b0;" d="M893 543h-235l-2 -543h-112l-2 543h-261v102h211l-417 811h139l386 -794l389 794h136l-417 -811h185v-102z" />
<glyph unicode="&#x4b1;" d="M920 -4h-234v-411h-122v411h-256v102h224l-442 984h126l364 -820l46 -142l47 142l360 820h126l-441 -984h202v-102z" />
<glyph unicode="&#x4b2;" d="M629 834l369 622h141l-439 -718l453 -738h-140l-382 642l-383 -642h-141l453 738l-439 718h141zM1197 -355h-119v468h119v-468z" />
<glyph unicode="&#x4b3;" d="M624 640l336 442h145l-412 -531l428 -551h-142l-353 461l-353 -461h-143l428 551l-412 531h143zM1122 -355h-119v468h119v-468z" />
<glyph unicode="&#x4b4;" d="M346 1353h-283v102h283v1h117v-1h284v-102h-284v-1252h504v1355h117v-1353h120l-9 -454h-107v351h-742v1353z" />
<glyph unicode="&#x4b5;" d="M324 980h-259v102h634v-102h-256v-879h480v981h119v-981h104l-9 -422h-109v321h-704v980z" />
<glyph unicode="&#x4b6;" d="M1036 1456v-1456h-118v662q-74 -24 -148.5 -40t-166.5 -16q-202 0 -302.5 113.5t-102.5 333.5l1 403h118l1 -403q1 -172 69 -258.5t217 -86.5q85 -1 161.5 15.5t152.5 40.5v692h118zM1129 -355h-119v468h119v-468z" />
<glyph unicode="&#x4b7;" d="M1040 0h-120v456q-74 -26 -154.5 -40t-165.5 -15q-104 0 -185 23.5t-137.5 73t-86.5 126.5t-30 184l-1 274h120v-274q1 -162 83 -234.5t237 -69.5q79 1 162.5 12.5t157.5 37.5v528h120v-1082zM1133 -355h-119v468h119v-468z" />
<glyph unicode="&#x4b8;" d="M636 356h-101v691h101v-691zM1036 1456v-1456h-118v662q-74 -24 -148.5 -40t-166.5 -16q-202 0 -302.5 113.5t-102.5 333.5l1 403h118l1 -403q1 -172 69 -258.5t217 -86.5q85 -1 161.5 15.5t152.5 40.5v692h118z" />
</font>
</defs>
</svg>
