<?xml version="1.0" standalone="no"?>
<!DOCTYPE svg PUBLIC "-//W3C//DTD SVG 1.1//EN" "http://www.w3.org/Graphics/SVG/1.1/DTD/svg11.dtd" >
<svg xmlns="http://www.w3.org/2000/svg" xmlns:xlink="http://www.w3.org/1999/xlink" version="1.1">
<metadata></metadata>
<defs>
<font id="roboto_monobold" horiz-adv-x="1229" >
<font-face units-per-em="2048" ascent="1536" descent="-512" />
<missing-glyph horiz-adv-x="500" />
<glyph horiz-adv-x="0" />
<glyph horiz-adv-x="0" />
<glyph />
<glyph unicode="&#x9;" />
<glyph unicode=" " />
<glyph unicode="!" d="M735 509h-253l-16 947h285zM446 136q0 33 11 61t32 49t51 32.5t68 11.5q37 0 67 -11.5t51 -32.5t32.5 -49t11.5 -61q0 -32 -11.5 -60t-32.5 -48t-51 -31.5t-67 -11.5q-38 0 -68 11.5t-51 31.5t-32 48t-11 60z" />
<glyph unicode="&#x22;" d="M487 1428l-29 -420h-177v528h206v-108zM898 1428l-28 -420h-177v528h205v-108z" />
<glyph unicode="#" d="M649 410h-201l-73 -410h-179l73 410h-228v169h258l52 290h-235v171h265l75 416h178l-74 -416h201l74 416h180l-75 -416h217v-171h-247l-52 -290h223v-169h-253l-73 -410h-179zM478 579h201l51 290h-201z" />
<glyph unicode="$" d="M863 382q0 42 -12.5 74.5t-40 59.5t-72 49.5t-107.5 44.5q-101 36 -184 76t-141.5 93t-90.5 123.5t-32 167.5q0 85 29 155.5t82 122.5t128 84t167 41v215h160v-217q90 -12 162 -49t122.5 -96.5t78 -140t27.5 -180.5h-278q0 121 -55 183.5t-149 62.5q-51 0 -88.5 -13.5 t-61.5 -38t-35.5 -57.5t-11.5 -72t11.5 -69.5t39 -56.5t72.5 -49.5t112 -47.5q101 -38 183 -78.5t140.5 -94t90 -124t31.5 -166.5q0 -88 -29 -158.5t-83 -121.5t-130 -81.5t-170 -39.5v-196h-159v196q-85 8 -165 37.5t-141.5 85.5t-98.5 141.5t-37 205.5h279 q0 -72 21 -120.5t54.5 -77t76.5 -40.5t88 -12q107 0 162 50t55 129z" />
<glyph unicode="%" d="M35 1196q0 58 17.5 109t53 89t89 60.5t124.5 22.5q73 0 126.5 -22.5t88.5 -60.5t52.5 -89t17.5 -109v-77q0 -57 -17.5 -107.5t-52.5 -89t-88 -60.5t-125 -22t-125.5 22t-89 60.5t-53.5 89t-18 107.5v77zM223 1119q0 -23 5 -44.5t16.5 -38t30.5 -26t46 -9.5t45.5 9.5 t29.5 26t16 38t5 44.5v77q0 23 -5 44.5t-16.5 38t-30 26t-46.5 9.5q-27 0 -45 -9.5t-29.5 -26t-16.5 -38t-5 -44.5v-77zM623 337q0 57 18 108t53.5 89.5t89 60.5t124.5 22q73 0 126.5 -22t88.5 -60.5t52.5 -89.5t17.5 -108v-78q0 -57 -17 -108t-52.5 -89t-88.5 -60t-125 -22 t-126 22t-89.5 60t-53.5 89t-18 108v78zM811 259q0 -23 6 -44.5t18.5 -38t31 -26t43.5 -9.5q31 0 50 9.5t29 26t13 37.5t3 45v78q0 23 -5 44t-16.5 37.5t-30 26t-45.5 9.5t-46 -9.5t-30 -26t-16 -37.5t-5 -44v-78zM415 198l-136 65l561 1028l136 -65z" />
<glyph unicode="&#x26;" d="M75 371q0 66 18.5 121t52.5 102.5t81.5 89.5t106.5 83q-59 89 -91.5 168.5t-32.5 164.5q0 86 27.5 156t78.5 119t123 75.5t161 26.5q75 0 136.5 -27t105 -73.5t67.5 -107.5t24 -129q0 -51 -16 -96t-44 -84.5t-65.5 -74.5t-80.5 -66l-80 -65l247 -317q32 57 49.5 125 t17.5 146h238q0 -137 -36.5 -255.5t-114.5 -212.5l188 -240h-318l-65 83q-76 -51 -157.5 -77.5t-184.5 -26.5q-101 0 -182 29t-137.5 81t-86.5 124t-30 158zM523 202q52 0 102 14t96 40l-263 342l-8 -6q-30 -29 -49 -57t-29.5 -54t-14 -49.5t-3.5 -44.5q0 -40 12 -74 t34 -58.5t53.5 -38.5t69.5 -14zM462 1100q0 -45 18.5 -90.5t50.5 -96.5l93 69q31 20 47 41.5t22.5 41t6.5 35v24.5q0 24 -7 47t-20 41t-31.5 29t-41.5 11q-35 0 -61 -12t-43 -33t-25.5 -48.5t-8.5 -58.5z" />
<glyph unicode="'" d="M671 1394l-28 -401h-186v543h214v-142z" />
<glyph unicode="(" d="M345 592q0 141 21.5 265.5t58.5 230t86.5 192.5t104.5 154t113.5 113.5t113.5 71.5l54 -152q-56 -43 -112 -115.5t-100.5 -180t-72.5 -250.5t-28 -327v-26q0 -185 28 -328t72.5 -250.5t100.5 -180.5t112 -116l-54 -150q-55 25 -113.5 72t-113.5 113.5t-104.5 153.5 t-86.5 192.5t-58.5 229.5t-21.5 266v22z" />
<glyph unicode=")" d="M881 570q0 -137 -22 -259.5t-60 -228.5t-88.5 -193.5t-107.5 -156t-117 -116.5t-117 -73l-53 150q55 42 111 115t101 180t73 251t28 329v26q0 184 -29 328t-74 252t-100.5 181t-109.5 115l53 149q57 -25 117 -73t117 -116.5t107.5 -156t88.5 -193.5t60 -228.5t22 -259.5 v-22z" />
<glyph unicode="*" d="M546 637l-392 96l66 205l375 -166l-36 431h219l-39 -438l372 163l66 -209l-398 -91l268 -323l-178 -129l-211 372l-211 -361l-179 123z" />
<glyph unicode="+" d="M731 812h366v-254h-366v-412h-265v412h-367v254h367v394h265v-394z" />
<glyph unicode="," d="M710 22q0 -57 -15.5 -117t-42.5 -116t-64.5 -106t-80.5 -89l-147 76q19 36 35.5 73t28.5 78t19 87t7 101v234h261z" />
<glyph unicode="-" d="M1115 530h-833v225h833v-225z" />
<glyph unicode="." d="M422 161q0 39 13 72.5t38 58t61 39t81 14.5t81 -14.5t60.5 -39t38 -58t13.5 -72.5q0 -38 -13.5 -71t-38 -57.5t-60.5 -38.5t-81 -14t-81 14t-61 38.5t-38 57.5t-13 71z" />
<glyph unicode="/" d="M479 -125h-259l545 1581h259z" />
<glyph unicode="0" d="M1089 554q0 -141 -32.5 -248.5t-93.5 -180t-149 -109.5t-198 -37q-109 0 -197 37t-149.5 109.5t-95 180t-33.5 248.5v348q0 141 33 248.5t94.5 180t149 109.5t196.5 37q110 0 198 -37t149.5 -109.5t94.5 -180t33 -248.5v-348zM421 674l388 289q-3 147 -51 218t-144 71 q-97 0 -145 -75t-48 -231v-272zM809 774l-388 -288q5 -144 53 -213.5t142 -69.5q98 0 145.5 76t47.5 233v262z" />
<glyph unicode="1" d="M822 0h-281v1117l-368 -132v242l634 229h15v-1456z" />
<glyph unicode="2" d="M1093 0h-993v190l471 506q55 60 93 109t61.5 89.5t34 75.5t10.5 68q0 49 -14 87t-39.5 64.5t-61 40.5t-78.5 14q-115 0 -171.5 -64t-56.5 -179h-279q0 97 37 183.5t104.5 151.5t163 102.5t211.5 37.5q111 0 196.5 -31t143 -87t87.5 -134.5t30 -173.5q0 -72 -22.5 -137.5 t-64 -129.5t-99.5 -130.5t-129 -139.5l-274 -290h639v-223z" />
<glyph unicode="3" d="M421 850h151q114 0 169 57.5t55 150.5q0 43 -12.5 78.5t-37.5 61t-63.5 39.5t-89.5 14q-42 0 -78.5 -12t-64 -34.5t-43.5 -54.5t-16 -72h-278q0 89 36.5 162t100.5 125.5t150.5 81.5t186.5 29q108 0 198 -26.5t154 -79t99.5 -130t35.5 -179.5q0 -47 -14 -92.5t-41 -86.5 t-67 -75.5t-92 -59.5q61 -22 105.5 -56t73.5 -77.5t43 -95.5t14 -110q0 -102 -39 -182t-107 -134.5t-161.5 -83t-201.5 -28.5q-93 0 -181.5 25.5t-157.5 77t-110.5 129.5t-41.5 184h278q0 -42 16 -77.5t45.5 -61t69.5 -40t88 -14.5q106 0 166 56t60 152q0 59 -17 101 t-49.5 69t-78 40t-102.5 13h-151v216z" />
<glyph unicode="4" d="M953 541h169v-225h-169v-316h-278v316h-605l-11 174l612 966h282v-915zM332 541h343v541l-27 -48z" />
<glyph unicode="5" d="M155 717l83 739h808v-236h-579l-35 -320q31 18 88 37t131 19q105 0 187.5 -33.5t139 -96.5t86.5 -154t30 -206q0 -98 -29 -186t-89 -155t-151 -106t-215 -39q-94 0 -181.5 28t-155.5 82t-110.5 132.5t-45.5 179.5h274q10 -95 68.5 -147t149.5 -52q56 0 95.5 21t64 58 t36 88t11.5 110q0 58 -14.5 106.5t-44.5 83.5t-75 54t-106 19q-41 0 -71 -7t-53 -18t-41 -25.5t-34 -30.5z" />
<glyph unicode="6" d="M879 1468v-231h-16q-110 0 -194.5 -29t-144 -82t-94 -127t-43.5 -165q23 25 53 49.5t67.5 44t81.5 31.5t95 12q104 0 181.5 -39.5t129.5 -107t77.5 -157t25.5 -188.5q0 -106 -34 -197t-97 -158t-153 -105.5t-202 -38.5q-117 0 -211 43.5t-159.5 120.5t-101 182.5 t-35.5 230.5v107q0 173 47 320.5t140 255t231 168t319 60.5h37zM603 748q-75 0 -132.5 -40t-86.5 -103v-82q0 -80 16.5 -140t46.5 -99.5t71 -59.5t89 -20q49 0 89 20.5t68 56.5t43 85.5t15 108.5t-15 109t-43 86.5t-68.5 57t-92.5 20.5z" />
<glyph unicode="7" d="M1092 1301l-567 -1301h-293l568 1229h-731v227h1023v-155z" />
<glyph unicode="8" d="M1055 1069q0 -106 -53.5 -188.5t-146.5 -131.5q106 -50 168.5 -140t62.5 -211q0 -103 -37.5 -181t-103 -130.5t-154.5 -79.5t-192 -27q-104 0 -193.5 27t-155.5 79.5t-103.5 130.5t-37.5 181q0 60 16.5 113.5t46.5 98t72.5 80t95.5 60.5q-93 48 -146 130.5t-53 188.5 q0 99 34 174.5t94.5 127.5t144 78.5t182.5 26.5t183 -26.5t145.5 -78.5t96 -127.5t34.5 -174.5zM807 417q0 50 -15 90t-42.5 68.5t-66 43.5t-86.5 15t-86.5 -15t-65.5 -43.5t-42 -68.5t-15 -90q0 -100 57 -157t154 -57q46 0 84 14.5t65.5 42.5t43 67.5t15.5 89.5zM778 1056 q0 44 -13 80t-36.5 61.5t-57 39.5t-75.5 14q-85 0 -131 -52t-46 -143q0 -44 12 -80.5t35.5 -62.5t57 -40.5t75.5 -14.5t75 14.5t56 40.5t35.5 62.5t12.5 80.5z" />
<glyph unicode="9" d="M332 221q112 0 194 24t137.5 69.5t86 111t39.5 148.5q-42 -42 -108 -72t-160 -30q-104 0 -183 38t-132.5 104t-81 155.5t-27.5 192.5q0 106 33.5 199.5t96.5 163.5t152.5 110.5t201.5 40.5q114 0 205 -44t154.5 -123t97 -188t33.5 -239v-96q0 -174 -43 -320t-133 -252.5 t-229 -166t-332 -59.5h-21v233h19zM587 687q38 0 70.5 11t59 30.5t46 46t31.5 57.5v99q0 80 -16.5 140t-45.5 100t-68 60t-84 20q-49 0 -87.5 -23.5t-64.5 -63t-40 -91t-14 -107.5t13 -107t39.5 -89t66.5 -60.5t94 -22.5z" />
<glyph unicode=":" d="M436 161q0 39 13 72.5t38 58t61 39t81 14.5t81 -14.5t60.5 -39t38 -58t13.5 -72.5q0 -38 -13.5 -71t-38 -57.5t-60.5 -38.5t-81 -14t-81 14t-61 38.5t-38 57.5t-13 71zM436 987q0 39 13 72.5t38 58t61 39t81 14.5t81 -14.5t60.5 -39t38 -58t13.5 -72.5q0 -38 -13.5 -71 t-38 -57.5t-60.5 -38.5t-81 -14t-81 14t-61 38.5t-38 57.5t-13 71z" />
<glyph unicode=";" d="M475 987q0 39 13 72.5t38 58t61 39t81 14.5t81 -14.5t60.5 -39t38 -58t13.5 -72.5q0 -38 -13.5 -71t-38 -57.5t-60.5 -38.5t-81 -14t-81 14t-61 38.5t-38 57.5t-13 71zM786 22q0 -57 -15.5 -117t-42.5 -116t-64.5 -106t-80.5 -89l-147 76q19 36 35.5 73t28.5 78t19 87 t7 101v234h261z" />
<glyph unicode="&#x3c;" d="M493 647l-68 -25l68 -24l548 -183v-271l-885 367v225l885 367v-270z" />
<glyph unicode="=" d="M1104 717h-946v228h946v-228zM1104 286h-946v227h946v-227z" />
<glyph unicode="&#x3e;" d="M161 834v269l900 -366v-227l-900 -367v270l573 192l61 20l-60 20z" />
<glyph unicode="?" d="M499 442q0 69 3.5 117t16.5 86.5t39 71t73 69.5q34 31 68 65.5t61.5 71t44.5 74.5t17 76q0 91 -49 133t-143 42q-36 0 -70 -9.5t-60.5 -30.5t-43 -54t-17.5 -79h-279q1 102 38 177.5t100 125.5t148 74.5t184 24.5q111 0 199 -25t148.5 -74.5t92.5 -122.5t32 -169 q0 -71 -24 -129.5t-62 -109t-86.5 -96t-97.5 -88.5q-30 -30 -47 -53t-24.5 -47t-9.5 -52.5t-2 -68.5h-250zM458 139q0 33 11 61.5t32 49.5t51 32.5t68 11.5q37 0 67.5 -11.5t51.5 -32.5t32.5 -49.5t11.5 -61.5q0 -32 -11.5 -60t-32.5 -48t-51.5 -31.5t-67.5 -11.5 q-38 0 -68 11.5t-51 31.5t-32 48t-11 60z" />
<glyph unicode="@" d="M1170 823q-3 -94 -21 -186.5t-53.5 -166t-90.5 -119t-132 -45.5q-51 0 -92.5 25.5t-65.5 73.5q-32 -45 -74.5 -71t-92.5 -26q-60 0 -105 27t-73 77.5t-38.5 121.5t-2.5 158q11 102 39.5 184t73.5 140.5t106 90t137 31.5q78 0 127.5 -23t80.5 -53l-43 -527q-2 -29 1.5 -45 t11 -24t17.5 -10t20 -2q26 0 47.5 27t37.5 75t24.5 114.5t8.5 145.5q4 122 -17.5 211.5t-67.5 147.5t-115 86t-159 28q-102 0 -183.5 -45.5t-139 -126.5t-90.5 -192.5t-37 -244.5q-5 -134 18.5 -234t73 -166.5t125 -99.5t173.5 -33q31 0 64 4t64.5 11.5t60 17.5t51.5 22 l32 -135q-26 -19 -59.5 -33t-70.5 -23.5t-74 -14t-71 -4.5q-146 0 -252 48t-175 137t-100.5 216.5t-26.5 286.5q5 158 52.5 297t130 242.5t195.5 163t249 59.5q118 0 213 -44.5t160.5 -126t98.5 -195.5t29 -253zM502 692q-6 -115 18.5 -173t73.5 -58q24 0 49 12.5t48 48.5 q0 3 0.5 6.5t0.5 6.5l38 447q-15 3 -31 3q-87 0 -134.5 -75t-62.5 -218z" />
<glyph unicode="A" d="M847 304h-437l-86 -304h-296l477 1456h255l468 -1456h-296zM479 543h302l-149 536z" />
<glyph unicode="B" d="M129 0v1456h489q119 0 216.5 -24t166.5 -73t106.5 -124t37.5 -177q-1 -102 -54.5 -183t-157.5 -123q63 -16 109 -48t76.5 -75.5t45 -95t14.5 -106.5q0 -105 -36 -185t-103 -134t-163 -81t-216 -27h-531zM411 642v-415h250q115 1 175.5 56.5t60.5 145.5q1 100 -54 156 t-170 57h-262zM411 845h209q117 1 180 49t64 141q0 102 -63 146.5t-182 45.5h-208v-382z" />
<glyph unicode="C" d="M1142 456q-7 -110 -47.5 -198t-108.5 -150t-162 -95.5t-208 -33.5q-129 0 -229 47.5t-168 133t-104 205.5t-36 264v196q0 145 38 265t108 206t169.5 133.5t223.5 47.5q120 0 213.5 -34t159.5 -97t104 -154t48 -205h-280q-4 65 -19.5 114t-45 81.5t-74 49t-106.5 16.5 q-65 0 -113 -28t-79.5 -82t-46.5 -132.5t-15 -178.5v-198q0 -215 60.5 -318t191.5 -103q110 0 174 58.5t71 189.5h281z" />
<glyph unicode="D" d="M125 0v1456h377q145 0 262.5 -49.5t201 -138t129 -211.5t45.5 -270v-120q0 -147 -45.5 -269.5t-127.5 -211t-197 -137.5t-254 -49h-391zM408 1228v-1002h108q79 0 141.5 30t106 87t66.5 138.5t23 185.5v122q0 98 -22.5 178.5t-67 138.5t-110 90t-151.5 32h-94z" />
<glyph unicode="E" d="M1027 638h-598v-411h699v-227h-981v1456h978v-229h-696v-367h598v-222z" />
<glyph unicode="F" d="M1055 603h-624v-603h-282v1456h984v-229h-702v-396h624v-228z" />
<glyph unicode="G" d="M1132 170q-27 -33 -74 -67t-111.5 -61.5t-144.5 -44.5t-172 -17q-124 0 -224 44t-171 127t-109.5 203.5t-38.5 273.5v198q0 153 40.5 273.5t112 204.5t168 128t209.5 44q123 0 214.5 -31t154.5 -89.5t98.5 -142.5t46.5 -189h-274q-14 112 -67.5 168.5t-165.5 56.5 q-54 0 -100 -27.5t-80 -80.5t-54 -131.5t-20 -181.5v-200q1 -204 68 -312.5t205 -109.5q33 0 65 5t60 14t49.5 20.5t32.5 24.5l1 264h-241v210h521z" />
<glyph unicode="H" d="M1092 0h-278v631h-412v-631h-279v1456h279v-597h412v597h278v-1456z" />
<glyph unicode="I" d="M193 1456h842v-227h-284v-1003h284v-226h-842v226h277v1003h-277v227z" />
<glyph unicode="J" d="M818 1456h281l1 -1009q-1 -104 -39.5 -189.5t-105.5 -147.5t-157.5 -96t-194.5 -34q-110 0 -200 28t-154.5 83.5t-100.5 139.5t-37 197h282q1 -117 52 -169.5t158 -52.5q48 0 88 18.5t68 50.5t43.5 76.5t15.5 95.5v1009z" />
<glyph unicode="K" d="M565 598l-154 -169v-429h-282v1456h282v-667l132 178l354 489h344l-490 -644l508 -812h-334z" />
<glyph unicode="L" d="M432 227h682v-227h-964v1456h282v-1229z" />
<glyph unicode="M" d="M476 1456l138 -547l157 547h349v-1456h-258v431l12 681l-191 -632h-139l-171 605l12 -654v-431h-258v1456h349z" />
<glyph unicode="N" d="M1091 0h-280l-405 939v-939h-283v1456h283l402 -935l1 935h282v-1456z" />
<glyph unicode="O" d="M1147 621q0 -140 -37 -258t-107 -203t-170.5 -132.5t-226.5 -47.5t-224 47.5t-165 133t-102 203t-35 257.5v212q0 140 35 258t102 203.5t164.5 133.5t223.5 48q127 0 227.5 -48t170.5 -133.5t107 -203.5t37 -258v-212zM862 835q0 89 -14.5 164t-45.5 129t-79.5 84.5 t-117.5 30.5q-68 0 -114 -30.5t-74 -84.5t-40 -129t-12 -164v-214q0 -88 12 -163t40 -130t74 -86t115 -31q68 0 116.5 31t79 85.5t45.5 129.5t15 164v214z" />
<glyph unicode="P" d="M430 534v-534h-281v1456h498q119 0 215 -34.5t163.5 -96t104 -147.5t36.5 -191q0 -98 -36.5 -181t-104 -143.5t-163.5 -94.5t-215 -34h-217zM430 762h217q60 0 104 18t73.5 49t44 71.5t14.5 84.5q0 51 -14.5 95t-44 77t-73.5 52t-104 19h-217v-466z" />
<glyph unicode="Q" d="M1156 577q-1 -134 -46.5 -252.5t-133.5 -202.5l241 -218l-181 -161l-277 256q-35 -9 -71.5 -14t-75.5 -5q-126 0 -224 48.5t-165.5 131t-102.5 190.5t-35 227v252q0 141 35 259.5t102.5 204.5t165.5 134.5t224 48.5q127 0 228 -48.5t171 -134.5t107.5 -204.5t37.5 -259.5 v-252zM871 831q0 90 -14.5 165.5t-45.5 130.5t-80 85.5t-119 30.5q-69 0 -115.5 -31t-74.5 -85.5t-40 -130t-12 -165.5v-254q0 -68 12 -133.5t40 -117t74.5 -83.5t115.5 -32q70 0 119 31.5t80 83.5t45.5 117.5t14.5 133.5v254z" />
<glyph unicode="R" d="M625 544h-213v-544h-281v1456h488q121 0 219 -28.5t167.5 -83.5t107 -137t37.5 -190q0 -78 -18.5 -140.5t-53 -112t-83 -86.5t-108.5 -64l313 -601v-13h-301zM412 772h208q119 0 183.5 60.5t64.5 165.5q0 109 -63 169.5t-186 60.5h-207v-456z" />
<glyph unicode="S" d="M887 380q0 39 -13.5 73t-46 63.5t-85 54t-130.5 45.5q-95 26 -181.5 65t-152.5 94t-105.5 128t-39.5 168q0 92 39 167t108 128t163 81.5t204 28.5q114 0 208.5 -33t162.5 -92.5t106 -141.5t38 -180h-274q-2 49 -17.5 90t-46 70.5t-76 46t-106.5 16.5q-56 0 -99.5 -13.5 t-73.5 -38t-45.5 -58t-15.5 -72.5q0 -41 20.5 -74t59.5 -59.5t94.5 -48.5t125.5 -41q100 -29 184 -71t144.5 -99.5t94 -131t33.5 -163.5q0 -96 -38.5 -170.5t-106.5 -126t-162 -78t-205 -26.5q-69 0 -137.5 12.5t-131 38.5t-116.5 65t-93.5 91t-62 118t-22.5 146h276 q2 -66 23 -113t58.5 -77t90 -44t115.5 -14q56 0 99.5 13t73.5 36t46 55.5t16 71.5z" />
<glyph unicode="T" d="M1201 1227h-449v-1227h-282v1227h-443v229h1174v-229z" />
<glyph unicode="U" d="M1101 1456l1 -965q0 -122 -33.5 -217t-97 -160.5t-155 -99.5t-208.5 -34q-110 0 -198.5 34t-151.5 99t-97.5 160.5t-34.5 217.5l1 965h281l1 -965q1 -141 51.5 -213t147.5 -72q103 0 157.5 72t55.5 213l1 965h279z" />
<glyph unicode="V" d="M613 407l275 1049h310l-441 -1456h-286l-440 1456h310z" />
<glyph unicode="W" d="M843 579l106 877h258l-202 -1456h-254l-138 860l-133 -860h-254l-200 1456h257l104 -871l124 871h201z" />
<glyph unicode="X" d="M624 934l259 522h330l-410 -722l420 -734h-328l-267 530l-266 -530h-332l420 734l-409 722h328z" />
<glyph unicode="Y" d="M628 785l287 671h309l-458 -952l-1 -504h-280l-1 516l-451 940h308z" />
<glyph unicode="Z" d="M431 227h722v-227h-1064v172l706 1055h-704v229h1044l1 -167z" />
<glyph unicode="[" d="M847 1475h-170v-1595h170v-215h-447v2025h447v-215z" />
<glyph unicode="\" d="M240 1456h260l545 -1581h-260z" />
<glyph unicode="]" d="M400 1690h448v-2025h-448v215h171v1595h-171v215z" />
<glyph unicode="^" d="M437 687h-224l319 769h201l318 -769h-223l-176 454l-21 84l-21 -84z" />
<glyph unicode="_" d="M1060 -217h-912v217h912v-217z" />
<glyph unicode="`" d="M894 1199h-219l-264 279h306z" />
<glyph unicode="a" d="M817 0q-10 20 -17 46t-12 55q-23 -25 -53 -47t-66.5 -38.5t-80.5 -26t-95 -9.5q-83 0 -152.5 24t-119.5 67t-78 102.5t-28 129.5q0 171 127.5 264.5t380.5 93.5h155v64q0 78 -51 123.5t-147 45.5q-85 0 -124 -36.5t-39 -97.5h-278q0 69 30.5 131t89 109t143 74.5 t193.5 27.5q98 0 182.5 -24t146.5 -71t97 -118.5t35 -165.5v-464q0 -87 11 -144t32 -98v-17h-282zM552 195q42 0 78 10t65 26t50 36.5t33 41.5v186h-142q-65 0 -111 -12.5t-75 -35t-43 -54t-14 -68.5q0 -56 39.5 -93t119.5 -37z" />
<glyph unicode="b" d="M1116 530q0 -121 -26.5 -222t-79.5 -174t-132 -113.5t-184 -40.5q-95 0 -164.5 35.5t-119.5 99.5l-13 -115h-250v1536h278v-552q48 56 113.5 87t153.5 31q106 0 185.5 -41t132.5 -114t79.5 -174.5t26.5 -221.5v-21zM838 551q0 66 -10 125t-34.5 103.5t-66.5 70.5t-105 26 q-76 0 -123.5 -32t-73.5 -88v-431q26 -56 73.5 -88t125.5 -32q63 0 104 24.5t65.5 68t34.5 103t10 129.5v21z" />
<glyph unicode="c" d="M620 202q41 0 78 12t65 34t43.5 53t13.5 69h262q2 -84 -34.5 -156t-99.5 -124t-146.5 -81.5t-176.5 -29.5q-126 0 -221 42.5t-158.5 116.5t-96 173.5t-32.5 213.5v30q0 114 32 213.5t96 173.5t158.5 117t219.5 43q100 0 185 -30t146.5 -84.5t95.5 -132t32 -173.5h-262 q2 40 -12 76t-41 62t-65 41.5t-83 15.5q-66 0 -109 -27t-68.5 -72t-36 -103t-10.5 -120v-30q0 -63 10 -121.5t35.5 -103t69 -71.5t110.5 -27z" />
<glyph unicode="d" d="M112 549q0 123 28.5 225t83.5 175t133.5 113t179.5 40q85 0 149.5 -30.5t114.5 -86.5v551h279v-1536h-251l-14 113q-51 -63 -120 -98t-160 -35q-99 0 -177.5 41.5t-133 114.5t-83.5 173.5t-29 218.5v21zM390 528q0 -68 11.5 -126.5t37.5 -102t67 -68.5t100 -25 q72 0 119.5 31t75.5 85v438q-28 55 -75 85.5t-118 30.5q-59 0 -100.5 -25.5t-67.5 -70t-38 -104t-12 -127.5v-21z" />
<glyph unicode="e" d="M666 -20q-125 0 -227 41t-175 111.5t-112.5 166t-39.5 204.5v40q0 124 39 226.5t109 176.5t166 115t209 41q117 0 208.5 -38.5t155 -108.5t96.5 -168.5t33 -217.5v-118h-734q8 -55 32.5 -100.5t62.5 -78.5t87 -51t107 -18q41 0 81.5 8t77.5 23.5t69 38.5t56 54l139 -150 q-26 -37 -67.5 -72.5t-98 -63t-125.5 -44.5t-149 -17zM633 877q-47 0 -86 -16.5t-68.5 -47.5t-49.5 -74t-30 -96h456v22q-2 44 -17 83t-43 67.5t-68.5 45t-93.5 16.5z" />
<glyph unicode="f" d="M410 0v877h-284v205h284v59q0 107 34 189t97 138t153 84.5t201 28.5q35 0 67.5 -2.5t63.5 -6.5t62.5 -9t65.5 -11l-18 -218q-38 8 -86 14t-113 6q-130 0 -189 -55t-59 -158v-59h390v-205h-390v-877h-279z" />
<glyph unicode="g" d="M113 549q0 123 30.5 225t87.5 175t138 113t183 40q95 0 163 -32t116 -91l11 103h253v-1047q0 -110 -37.5 -196t-105 -145t-162 -89.5t-208.5 -30.5q-49 0 -105 10t-111 31t-104 53.5t-84 77.5l125 169q53 -60 120 -91.5t145 -31.5q117 0 182.5 62.5t65.5 177.5v62 q-49 -54 -114.5 -84t-151.5 -30q-101 0 -181.5 41.5t-137.5 114.5t-87.5 173.5t-30.5 218.5v21zM392 528q0 -68 13.5 -126.5t41.5 -102t71 -68.5t102 -25q73 0 120.5 28t75.5 78v458q-28 51 -75.5 78.5t-118.5 27.5q-59 0 -102 -25.5t-71.5 -70t-42.5 -104t-14 -127.5v-21z " />
<glyph unicode="h" d="M419 933q54 79 131.5 124t173.5 45q85 0 156 -25.5t122 -79.5t79.5 -138.5t28.5 -203.5v-655h-278v657q0 58 -14.5 100t-41.5 68t-65 38.5t-86 12.5q-70 0 -121.5 -25t-84.5 -70v-781h-278v1536h278v-603z" />
<glyph unicode="i" d="M215 1082h589v-856h293v-226h-882v226h308v629h-308v227zM503 1359q0 32 11.5 59.5t32.5 47t50.5 30.5t65.5 11q74 0 117.5 -41.5t43.5 -106.5t-43.5 -106.5t-117.5 -41.5q-36 0 -65.5 11t-50.5 30.5t-32.5 47t-11.5 59.5z" />
<glyph unicode="j" d="M307 1082h554v-1107q0 -108 -31 -185.5t-90 -128t-144 -74.5t-194 -24q-45 0 -91 3.5t-88 13.5l14 226q12 -3 33.5 -5.5t44 -4t43 -2t30.5 -0.5q40 0 75.5 9t61 30t40.5 55.5t15 86.5v880h-273v227zM561 1359q0 32 11.5 59.5t32 47t50 30.5t65.5 11q74 0 117.5 -41.5 t43.5 -106.5t-43.5 -106.5t-117.5 -41.5q-36 0 -65.5 11t-50 30.5t-32 47t-11.5 59.5z" />
<glyph unicode="k" d="M548 447l-126 -117v-330h-278v1536h278v-878l84 96l299 328h334l-408 -451l465 -631h-341z" />
<glyph unicode="l" d="M199 1536h605v-1310h310v-226h-915v226h324v1083h-324v227z" />
<glyph unicode="m" d="M314 1082l8 -131q31 70 85.5 110.5t132.5 40.5q131 0 171 -115q32 54 81.5 84.5t119.5 30.5q49 0 91.5 -18t74 -57.5t49 -102t17.5 -152.5v-772h-253v773q0 31 -6.5 51t-17.5 31.5t-25.5 16t-29.5 4.5q-29 0 -49 -13.5t-31 -36.5v-826h-245v774q0 31 -6 51t-16.5 31 t-24.5 15.5t-30 4.5q-32 0 -51.5 -18t-30.5 -48v-810h-253v1082h239z" />
<glyph unicode="n" d="M393 1082l17 -150q58 81 141 125.5t184 44.5q82 0 150 -24t117.5 -76.5t77 -135t27.5 -200.5v-666h-278v662q0 64 -14.5 105.5t-41.5 65.5t-65 33.5t-86 9.5q-71 0 -121 -28.5t-81 -78.5v-769h-279v1082h252z" />
<glyph unicode="o" d="M103 551q0 118 34 218.5t99.5 174.5t160 116t216.5 42t217 -42t160.5 -116t99.5 -174.5t34 -218.5v-21q0 -119 -34 -219.5t-99 -174.5t-160 -115.5t-216 -41.5q-122 0 -217.5 41.5t-161 115.5t-99.5 174.5t-34 219.5v21zM381 530q0 -68 13 -127.5t41 -104t72.5 -70.5 t107.5 -26q61 0 105 26t71.5 70.5t40.5 104t13 127.5v21q0 66 -13 125t-40.5 104t-71.5 71t-107 26q-62 0 -106 -26t-72 -71t-41 -104t-13 -125v-21z" />
<glyph unicode="p" d="M1113 531q0 -118 -27.5 -219t-81 -174.5t-132.5 -115.5t-181 -42q-87 0 -153 30t-115 84v-510h-278v1498h257l10 -106q50 60 118 93t159 33q103 0 182 -39.5t133 -112t81.5 -174t27.5 -224.5v-21zM835 552q0 68 -12.5 127.5t-39 103t-68 68.5t-100.5 25 q-73 0 -119.5 -28.5t-72.5 -80.5v-452q26 -51 72.5 -81.5t121.5 -30.5q59 0 100.5 26t67.5 71t38 104.5t12 126.5v21z" />
<glyph unicode="q" d="M113 550q0 123 28 225t82.5 174.5t134 112.5t182.5 40q92 0 160.5 -34t118.5 -96l17 110h245v-1498h-279v508q-49 -54 -114 -83t-150 -29q-102 0 -181 41.5t-133 115t-82.5 174t-28.5 218.5v21zM391 529q0 -67 12 -126t38 -103.5t67.5 -70.5t100.5 -26q73 0 119.5 29 t73.5 80v460q-27 50 -73.5 77.5t-117.5 27.5q-59 0 -100.5 -25.5t-68 -69.5t-39 -103.5t-12.5 -128.5v-21z" />
<glyph unicode="r" d="M918 1102q63 0 116.5 -8.5t86.5 -18.5l-41 -277q-55 13 -112.5 19.5t-109.5 6.5q-117 0 -187.5 -45t-105.5 -129v-650h-278v1082h259l13 -177q66 92 158 144.5t201 52.5z" />
<glyph unicode="s" d="M839 297q0 25 -11.5 44t-41 35.5t-78.5 30.5t-124 28q-95 19 -173.5 47.5t-134.5 69t-87.5 93.5t-31.5 122q0 67 32 128t92 107t146 73t194 27q113 0 203 -26.5t152.5 -73t95.5 -110.5t33 -139h-278q0 63 -51 105.5t-155 42.5q-97 0 -146.5 -35t-49.5 -86q0 -24 10 -44.5 t35.5 -37t69.5 -30t112 -23.5q98 -16 182 -41t145 -64.5t95.5 -96t34.5 -134.5q0 -72 -34.5 -132.5t-98 -104.5t-153.5 -68.5t-201 -24.5q-122 0 -215.5 32t-156.5 83.5t-95.5 117t-32.5 131.5h265q3 -44 24 -75.5t54 -51t75.5 -28.5t87.5 -9q103 0 157 33t54 85z" />
<glyph unicode="t" d="M651 1347v-265h404v-205h-404v-465q0 -59 13.5 -98.5t38.5 -63t60.5 -33.5t79.5 -10q32 0 65.5 3t64 7.5t57 9.5t45.5 10l27 -191q-29 -17 -68 -29.5t-83 -20.5t-91.5 -12.5t-93.5 -4.5q-89 0 -161.5 23.5t-124 73t-79.5 126t-28 183.5v492h-247v205h247v265h278z" />
<glyph unicode="u" d="M831 152q-55 -81 -132.5 -127t-169.5 -46q-84 0 -154 26t-120 82.5t-77.5 144t-27.5 210.5v640h278v-642q0 -66 9.5 -111t30.5 -72.5t55 -39.5t83 -12q83 0 135 31.5t79 86.5v759h279v-1082h-252z" />
<glyph unicode="v" d="M601 321l14 -78l14 75l238 764h290l-411 -1082h-261l-413 1082h290z" />
<glyph unicode="w" d="M833 339l94 743h255l-194 -1082h-244l-142 688l-137 -688h-244l-194 1082h254l94 -746l136 746h186z" />
<glyph unicode="x" d="M636 744l238 338h299l-363 -531l376 -551h-300l-249 354l-247 -354h-301l376 551l-362 531h299z" />
<glyph unicode="y" d="M602 454l32 -116l288 744h307l-549 -1244q-18 -41 -46.5 -89t-71.5 -89t-104.5 -69t-145.5 -28q-20 0 -37 1.5t-33 4t-31.5 6t-33.5 8.5l34 212q17 0 43.5 -1.5t42.5 -1.5q33 0 58.5 20t43.5 44t29 44t15 20l67 126l-458 1036h304z" />
<glyph unicode="z" d="M498 223h637v-223h-1017v172l606 684h-592v226h978v-167z" />
<glyph unicode="{" d="M940 -360q-66 0 -120 20t-96.5 54t-73 80t-51 98t-30 106.5t-9.5 107.5v163q0 133 -62 191t-189 58v200q127 0 189 58t62 193v163q0 52 8.5 107t27.5 107t48.5 97.5t72 79.5t98 54t125.5 20l34 -157q-61 2 -94 -25.5t-48 -72.5t-17.5 -100.5t-2.5 -109.5v-163 q0 -119 -58.5 -211t-181.5 -140q124 -48 182 -139t58 -210v-163q0 -54 6.5 -109.5t24.5 -100.5t49.5 -72.5t81.5 -25.5z" />
<glyph unicode="|" d="M707 -410h-174v1866h174v-1866z" />
<glyph unicode="}" d="M332 -202q49 -2 80.5 25.5t49.5 72.5t25 100.5t7 109.5v163q0 58 13.5 110t41.5 97t70.5 80.5t101.5 60.5q-117 50 -172 143t-55 209v163q0 54 -2.5 109.5t-17.5 100.5t-48 72.5t-94 25.5l34 157q70 0 125.5 -20t97.5 -54t72 -79.5t49 -97.5t27.5 -107t8.5 -107v-163 q0 -135 61.5 -193t189.5 -58v-200q-128 0 -189.5 -58t-61.5 -191v-163q0 -52 -10 -107t-30 -107t-51 -98t-73 -80t-96 -54t-120 -20z" />
<glyph unicode="~" d="M1144 752q0 -81 -22.5 -150t-63 -118.5t-97.5 -77.5t-125 -28q-44 0 -82.5 8t-75.5 24.5t-73 41.5t-74 60q-49 40 -94 62t-92 22q-27 0 -52 -13.5t-44.5 -36t-31 -51.5t-11.5 -60l-180 22q0 81 22 148.5t62.5 116t97 75.5t124.5 27q87 0 160.5 -34t147.5 -99 q49 -42 93.5 -63t89.5 -21q27 0 51 14t42 37t29 52.5t11 60.5z" />
<glyph unicode="&#xa0;" />
<glyph unicode="&#xa1;" d="M514 565h253l16 -945h-286zM807 947q0 -32 -11.5 -60t-33 -48t-51.5 -31.5t-67 -11.5q-38 0 -68 11.5t-51 31.5t-32 48t-11 60q0 33 11 61.5t32 49.5t51 33t68 12q37 0 67 -12t51.5 -33t33 -49.5t11.5 -61.5z" />
<glyph unicode="&#xa2;" d="M645 202q41 0 78 12t65 34t43.5 53t13.5 69h262q2 -74 -26 -138t-77.5 -114.5t-117 -84t-144.5 -46.5v-232h-200v233q-99 18 -174 66t-125 119t-75.5 161t-25.5 191v30q0 101 25.5 191t75.5 161t125 119.5t174 66.5v225h200v-223q81 -13 149 -47.5t116.5 -88t75 -123.5 t24.5 -154h-262q2 40 -12 76t-41 62t-65 41.5t-83 15.5q-66 0 -109 -27t-68.5 -72t-36 -103t-10.5 -120v-30q0 -63 10 -121.5t35.5 -103t69 -71.5t110.5 -27z" />
<glyph unicode="&#xa3;" d="M560 585l6 -154q0 -62 -14.5 -113t-48.5 -92h670v-226h-1055v226h89q24 6 38.5 25.5t23 46.5t11 58.5t2.5 61.5l-5 167h-162v221h155l-7 234q0 103 33 184.5t93 137t143.5 85t183.5 29.5q107 0 190 -29.5t139.5 -83.5t86 -130t29.5 -169h-269q0 51 -14.5 86.5t-39.5 57.5 t-57.5 31.5t-68.5 9.5t-67 -13.5t-53.5 -39.5t-35.5 -65.5t-13 -90.5l9 -234h310v-221h-302z" />
<glyph unicode="&#xa4;" d="M904 78q-61 -48 -135 -73t-155 -25t-154.5 25t-135.5 71l-100 -102l-141 144l108 110q-35 60 -54 131t-19 149q0 83 21.5 157t59.5 136l-116 119l141 144l114 -117q60 42 129.5 64.5t146.5 22.5t147 -23t130 -65l116 119l142 -145l-120 -123q38 -62 58.5 -135t20.5 -154 q0 -78 -18.5 -147.5t-52.5 -129.5l112 -113l-142 -145zM304 508q0 -72 24 -134t66 -107.5t98.5 -72t121.5 -26.5q64 0 120.5 26.5t98.5 72t66 107.5t24 134t-24 133.5t-66 106.5t-98.5 71t-120.5 26q-65 0 -121.5 -26t-98.5 -71t-66 -106.5t-24 -133.5z" />
<glyph unicode="&#xa5;" d="M623 837l292 619h309l-383 -714h250v-166h-331v-124h331v-165h-331v-287h-281v287h-343v165h343v124h-343v166h269l-384 714h310z" />
<glyph unicode="&#xa6;" d="M488 -270v795h253v-795h-253zM741 698h-253v758h253v-758z" />
<glyph unicode="&#xa7;" d="M1169 475q0 -94 -42 -161.5t-120 -110.5q66 -50 100 -118.5t34 -168.5q0 -90 -36.5 -159.5t-103.5 -117t-161.5 -72t-211.5 -24.5q-101 0 -198.5 20.5t-174 69t-123 129t-46.5 200.5l278 1q0 -59 23 -96.5t60.5 -59.5t85 -30.5t95.5 -8.5q115 0 175.5 40t60.5 107 q0 33 -14 59t-48.5 48.5t-92 44t-144.5 46.5q-112 30 -200 65.5t-149.5 84.5t-94 115t-32.5 157q0 92 42.5 160.5t120.5 112.5q-66 51 -100.5 119.5t-34.5 168.5q0 86 36.5 156.5t104 120t163 76.5t212.5 27q120 0 216 -28t162.5 -82.5t102.5 -134.5t36 -183h-279 q0 43 -15 80t-45 64.5t-74.5 43.5t-103.5 16q-62 0 -107 -12.5t-74 -33.5t-42.5 -49t-13.5 -59q0 -38 12.5 -65t45.5 -49.5t90.5 -42.5t147.5 -44q114 -30 203 -65.5t150 -84.5t92.5 -115t31.5 -157zM594 663q-78 21 -144 45q-44 -21 -64 -59.5t-20 -87.5q0 -40 12.5 -68.5 t45.5 -52.5t90.5 -45.5t147.5 -48.5q39 -11 75 -21.5t70 -22.5q43 23 66 61t23 86q0 36 -14.5 64t-49.5 53t-93 48t-145 49z" />
<glyph unicode="&#xa8;" d="M265 1365q0 26 10 49t28 40t43 26.5t55 9.5t55 -9.5t43 -26.5t28 -40t10 -49t-10 -49t-28 -39.5t-43 -26t-55 -9.5t-55 9.5t-43 26t-28 39.5t-10 49zM745 1365q0 26 10 49t28 39.5t43 26t55 9.5t55 -9.5t43 -26t28 -39.5t10 -49q0 -27 -10 -50t-28 -40t-43 -26.5 t-55 -9.5t-55 9.5t-43 26.5t-28 40t-10 50z" />
<glyph unicode="&#xa9;" d="M862 442q0 -119 -67.5 -177t-183.5 -58q-60 0 -108.5 21t-82.5 59t-52 91t-18 118v90q0 64 18 117.5t52 92t82.5 60t108.5 21.5q117 0 184.5 -59.5t67.5 -177.5h-117q0 72 -34 103.5t-101 31.5q-36 0 -63 -14t-45.5 -39t-27.5 -59.5t-9 -75.5v-91q0 -42 9 -76.5t27.5 -59 t45.5 -38.5t63 -14q67 0 100.5 30t33.5 104h117zM180 542q0 -99 34.5 -185t94.5 -149.5t140.5 -99.5t172.5 -36q91 0 171 36t140 99.5t94.5 149.5t34.5 185t-34.5 184t-94.5 148t-140 98.5t-171 35.5q-92 0 -172.5 -35.5t-140.5 -98.5t-94.5 -148t-34.5 -184zM89 542 q0 118 42 220.5t114.5 178t169.5 118.5t207 43t207 -43t169 -118.5t114 -178t42 -220.5q0 -119 -42 -221.5t-114 -178.5t-169 -119t-207 -43t-207 43t-169.5 119t-114.5 178.5t-42 221.5z" />
<glyph unicode="&#xaa;" d="M765 705q-15 43 -21 94q-14 -21 -34.5 -40.5t-48 -34.5t-62.5 -24t-77 -9q-60 0 -106.5 16t-78 46t-48 72t-16.5 94q0 111 83.5 171t247.5 60h137v51q0 62 -28.5 94.5t-87.5 32.5q-65 0 -101.5 -25.5t-36.5 -73.5l-173 14q0 51 22 93.5t63 73.5t98 48.5t128 17.5 q65 0 118.5 -17.5t92 -52t59.5 -86t21 -120.5v-314q0 -49 6 -93t20 -88h-177zM565 835q26 0 54 8.5t52.5 22t43 30.5t26.5 34v103h-136q-39 0 -68 -9t-49 -24t-30 -35t-10 -42q0 -42 28.5 -65t88.5 -23z" />
<glyph unicode="&#xab;" d="M408 492l242 -399h-181l-282 390v19l282 390h181zM787 492l242 -399h-181l-282 390v19l282 390h181z" />
<glyph unicode="&#xac;" d="M1020 374h-200v260h-635v171h835v-431z" />
<glyph unicode="&#xad;" d="M1115 530h-833v225h833v-225z" />
<glyph unicode="&#xae;" d="M88 541q0 119 42 221.5t114 178t169 118.5t207 43t207 -43t169 -118.5t114 -178t42 -221.5t-42 -221.5t-114 -178.5t-169 -119t-207 -43t-207 43t-169 119t-114 178.5t-42 221.5zM179 541q0 -99 34.5 -184.5t94.5 -148.5t140.5 -99t171.5 -36t171.5 36t140.5 99 t94.5 148.5t34.5 184.5t-34.5 184.5t-94.5 148.5t-140.5 98.5t-171.5 35.5t-171.5 -35.5t-140.5 -98.5t-94.5 -148.5t-34.5 -184.5zM512 484v-252h-113v637h211q111 0 177.5 -48t66.5 -145q0 -56 -35 -95t-101 -62l146 -287h-116l-117 252h-119zM512 585h114q22 0 43 6 t37 17t25.5 27t9.5 37q0 55 -29 76t-102 21h-98v-184z" />
<glyph unicode="&#xaf;" d="M1003 1292h-730v164h730v-164z" />
<glyph unicode="&#xb0;" d="M357 1202q0 56 21.5 105.5t58.5 87t86 59.5t105 22q54 0 102.5 -22t84.5 -59.5t57 -87t21 -105.5q0 -57 -21 -106t-57 -86t-84.5 -58t-102.5 -21q-56 0 -105 21t-86 58t-58.5 86t-21.5 106zM502 1202q0 -27 10 -49.5t27.5 -39t40 -26t48.5 -9.5q25 0 47.5 9t38.5 25.5 t25.5 39.5t9.5 50t-9.5 50.5t-25.5 41t-38.5 27t-47.5 9.5q-26 0 -48.5 -9.5t-40 -27t-27.5 -41t-10 -50.5z" />
<glyph unicode="&#xb1;" d="M732 933h331v-232h-331v-370h-245v370h-340v232h340v351h245v-351zM1031 0h-860v227h860v-227z" />
<glyph unicode="&#xb2;" d="M934 667h-618v134l287 259q57 50 81.5 92.5t24.5 66.5q0 39 -24.5 63t-72.5 24q-57 0 -85 -33.5t-28 -78.5h-201q0 56 21 105.5t61 87t96 59t127 21.5q147 0 227.5 -64.5t80.5 -182.5q0 -44 -13.5 -80t-40.5 -71t-67 -71t-94 -79l-117 -93h355v-159z" />
<glyph unicode="&#xb3;" d="M515 1135h88q60 0 88 24.5t28 65.5q0 15 -6 29t-18.5 25.5t-33 18.5t-50.5 7q-44 0 -74 -17t-30 -47h-201q0 55 24.5 97t65.5 70.5t95 43t114 14.5q70 0 128 -14.5t99 -43t64 -71t23 -97.5q0 -61 -36 -104t-99 -66q71 -19 110.5 -62.5t39.5 -120.5q0 -56 -25 -99 t-69.5 -72.5t-104.5 -45t-130 -15.5q-56 0 -111.5 13t-100 42.5t-72.5 76t-28 113.5h202q0 -34 32.5 -59.5t89.5 -25.5q61 0 88 27t27 63q0 53 -34 74t-95 21h-88v135z" />
<glyph unicode="&#xb4;" d="M569 1478h306l-277 -279h-216z" />
<glyph unicode="&#xb5;" d="M450 1082v-620q0 -80 13.5 -130t38 -78.5t58.5 -38.5t75 -10q81 0 131.5 28.5t77.5 79.5v769h279v-1082h-259l-6 72q-43 -45 -99.5 -69t-128.5 -24q-107 0 -180 48v-443h-278v1498h278z" />
<glyph unicode="&#xb6;" d="M791 0v520h-83q-119 0 -211 35t-154.5 97.5t-94.5 148.5t-32 187q0 100 32 186t94.5 148.5t154.5 98t211 35.5h299v-1456h-216z" />
<glyph unicode="&#xb7;" d="M494 701q0 32 11 59.5t31.5 47.5t50 31.5t65.5 11.5t65.5 -11.5t50 -31.5t31.5 -47.5t11 -59.5t-11 -59t-31.5 -47t-50 -31.5t-65.5 -11.5t-65.5 11.5t-50 31.5t-31.5 47t-11 59z" />
<glyph unicode="&#xb8;" d="M676 5l-11 -56q28 -5 55 -16.5t48 -32t34 -51t13 -73.5q0 -53 -22 -96t-65.5 -73.5t-107.5 -47.5t-149 -17l-7 160q51 0 85 19t34 64q0 42 -34.5 58t-110.5 21l31 141h207z" />
<glyph unicode="&#xb9;" d="M784 659h-199v553l-191 -43v156l371 120h19v-786z" />
<glyph unicode="&#xba;" d="M266 1141q0 73 24 134.5t69 106t109 69.5t144 25q81 0 145 -25t109 -69.5t69 -106t24 -134.5v-117q0 -73 -24 -134.5t-68.5 -105.5t-108.5 -69t-144 -25t-144.5 25t-109.5 69t-69.5 105.5t-24.5 134.5v117zM441 1024q0 -41 10.5 -75t32 -59.5t54 -39.5t76.5 -14 q43 0 75 14t53 39.5t31.5 59.5t10.5 75v117q0 40 -10.5 74t-32 59t-54 39.5t-75.5 14.5t-75 -14.5t-53.5 -39.5t-32 -59t-10.5 -74v-117z" />
<glyph unicode="&#xbb;" d="M408 926l283 -390v-19l-283 -390h-181l241 399l-241 400h181zM785 926l283 -390v-19l-283 -390h-181l241 399l-241 400h181z" />
<glyph unicode="&#xbc;" d="M416.418 751h-179.104v497.714l-171.905 -38.7012v140.403l333.909 108.003h17.1006v-707.419zM425 235l-131 67l511 938l131 -67zM1087.92 290.708h81.9023v-146.704h-81.9023v-144.004h-181.805v144.004h-311.409l-9.90039 117.903l321.31 446.412v1.7998h181.805 v-419.411zM757.611 290.708h148.505v193.505l-10.8008 -17.1006z" />
<glyph unicode="&#xbd;" d="M356 235l-131 67l511 938l131 -67zM375.418 752h-179.104v497.714l-171.905 -38.7012v140.403l333.909 108.003h17.1006v-707.419zM1206.72 0h-556.215v120.604l258.307 233.106q51.3018 45.001 73.3525 83.252q22.0498 38.251 22.0498 59.8516 q0 35.1006 -22.0498 56.7012q-22.0508 21.6006 -65.252 21.6006q-51.3018 0 -76.502 -30.1504q-25.2012 -30.1504 -25.2012 -70.6523h-180.904q0 50.4014 18.9004 94.9531q18.9004 44.5508 54.9014 78.3018t86.4023 53.1016t114.303 19.3506q132.304 0 204.756 -58.0518 t72.4521 -164.254q0 -39.6016 -12.1504 -72.002q-12.1504 -32.4014 -36.4512 -63.9023t-60.3018 -63.9014q-36.001 -32.4014 -84.6025 -71.1016l-105.303 -83.7031h319.509v-143.104z" />
<glyph unicode="&#xbe;" d="M509 235l-131 67l511 938l131 -67zM1135.92 290.708h81.9023v-146.704h-81.9023v-144.004h-181.805v144.004h-311.409l-9.90039 117.903l321.31 446.412v1.7998h181.805v-419.411zM805.611 290.708h148.505v193.505l-10.8008 -17.1006zM233.013 1166.11h79.2021 q54.002 0 79.2021 22.0508t25.2002 58.9512q0 13.501 -5.39941 26.1016q-5.40039 12.5996 -16.6504 22.9502q-11.251 10.3506 -29.7012 16.6504t-45.4512 6.2998q-39.6006 0 -66.6016 -15.2998q-27.001 -15.3008 -27.001 -42.3018h-180.905q0 49.502 22.0508 87.3027 t58.9521 63.4521q36.9004 25.6504 85.502 38.7002q48.6016 13.0508 102.603 13.0508q63.002 0 115.203 -13.0508q52.2021 -13.0498 89.1025 -38.7002q36.9014 -25.6514 57.6016 -63.9023q20.7012 -38.251 20.7012 -87.752q0 -54.9014 -32.4014 -93.6025t-89.1025 -59.4023 q63.9023 -17.0996 99.4531 -56.251t35.5508 -108.453q0 -50.4014 -22.501 -89.1025q-22.5 -38.7012 -62.5518 -65.252q-40.0508 -26.5508 -94.0527 -40.501q-54.001 -13.9502 -117.003 -13.9502q-50.4014 0 -100.353 11.7002t-90.002 38.251 q-40.0518 26.5508 -65.252 68.4023q-25.2012 41.8506 -25.2012 102.152h181.805q0 -30.6006 29.251 -53.5508q29.251 -22.9512 80.5527 -22.9512q54.9014 0 79.2021 24.3008t24.3008 56.7012q0 47.7012 -30.6016 66.6025q-30.6006 18.9004 -85.502 18.9004h-79.2021v121.503 z" />
<glyph unicode="&#xbf;" d="M791 639q0 -68 -2.5 -116.5t-14.5 -86t-37.5 -69.5t-73.5 -68q-32 -33 -64.5 -68.5t-58.5 -73t-42.5 -77t-16.5 -81.5q0 -83 43 -123.5t118 -40.5q35 0 66.5 9.5t55.5 29.5t38.5 52t15.5 77h279q-2 -101 -37 -175.5t-95 -123.5t-142 -73t-176 -24q-105 0 -187.5 25.5 t-139.5 75t-87.5 122.5t-30.5 168q0 70 23 129t60.5 110.5t84.5 97.5t94 90q31 29 46.5 51t22.5 45t7.5 50.5t1.5 67.5h249zM538 942q0 28 6.5 52.5t21.5 42.5t40.5 28.5t63.5 10.5t64 -10.5t41.5 -28.5t22.5 -42.5t7 -52.5q0 -26 -7 -48.5t-22.5 -39.5t-41.5 -27t-64 -10 t-63.5 10t-40.5 27t-21.5 39.5t-6.5 48.5z" />
<glyph unicode="&#xc0;" d="M847 304h-437l-86 -304h-296l477 1456h255l468 -1456h-296zM479 543h302l-149 536zM746 1547h-219l-264 279h306z" />
<glyph unicode="&#xc1;" d="M847 304h-437l-86 -304h-296l477 1456h255l468 -1456h-296zM479 543h302l-149 536zM703 1823h306l-277 -279h-216z" />
<glyph unicode="&#xc2;" d="M847 304h-437l-86 -304h-296l477 1456h255l468 -1456h-296zM479 543h302l-149 536zM1008 1622v-28h-221l-154 127l-153 -127h-217v30l290 241h161z" />
<glyph unicode="&#xc3;" d="M847 304h-437l-86 -304h-296l477 1456h255l468 -1456h-296zM479 543h302l-149 536zM997 1861q0 -45 -15.5 -89t-44 -78.5t-68 -55.5t-88.5 -21q-48 0 -83.5 13.5t-67 30t-62.5 30t-70 13.5q-36 0 -62.5 -26t-26.5 -72l-140 30q0 44 15.5 88t43.5 79t67.5 57t88.5 22 q40 0 75 -13.5t68.5 -30t67.5 -30t72 -13.5q36 0 63 25.5t27 71.5z" />
<glyph unicode="&#xc4;" d="M847 304h-437l-86 -304h-296l477 1456h255l468 -1456h-296zM479 543h302l-149 536zM252 1714q0 26 10 49t28 40t43 26.5t55 9.5t55 -9.5t43 -26.5t28 -40t10 -49t-10 -49t-28 -39.5t-43 -26t-55 -9.5t-55 9.5t-43 26t-28 39.5t-10 49zM732 1714q0 26 10 49t28 39.5t43 26 t55 9.5t55 -9.5t43 -26t28 -39.5t10 -49q0 -27 -10 -50t-28 -40t-43 -26.5t-55 -9.5t-55 9.5t-43 26.5t-28 40t-10 50z" />
<glyph unicode="&#xc5;" d="M847 304h-437l-86 -304h-296l477 1456h255l468 -1456h-296zM479 543h302l-149 536zM421 1732q0 42 16.5 78t45.5 62t68 41t83 15t82 -15t66 -41t44 -62t16 -78t-16 -77.5t-44 -61t-66 -39.5t-82 -14t-83 14t-68 39.5t-45.5 61t-16.5 77.5zM535 1732q0 -44 28.5 -71 t70.5 -27t68.5 27t26.5 71q0 45 -26.5 72.5t-68.5 27.5t-70.5 -27.5t-28.5 -72.5z" />
<glyph unicode="&#xc6;" d="M1177 0h-536v334h-217l-94 -334h-282l479 1456h629v-228h-248v-366h217v-227h-217v-409h269v-226zM641 574v532l-150 -532h150z" />
<glyph unicode="&#xc7;" d="M1142 456q-7 -110 -47.5 -198t-108.5 -150t-162 -95.5t-208 -33.5q-129 0 -229 47.5t-168 133t-104 205.5t-36 264v196q0 145 38 265t108 206t169.5 133.5t223.5 47.5q120 0 213.5 -34t159.5 -97t104 -154t48 -205h-280q-4 65 -19.5 114t-45 81.5t-74 49t-106.5 16.5 q-65 0 -113 -28t-79.5 -82t-46.5 -132.5t-15 -178.5v-198q0 -215 60.5 -318t191.5 -103q110 0 174 58.5t71 189.5h281zM727 10l-11 -56q28 -5 55 -16.5t48 -32t34 -51t13 -73.5q0 -53 -22 -96t-65.5 -73.5t-107.5 -47.5t-149 -17l-7 160q51 0 85 19t34 64q0 42 -34.5 58 t-110.5 21l31 141h207z" />
<glyph unicode="&#xc8;" d="M1027 638h-598v-411h699v-227h-981v1456h978v-229h-696v-367h598v-222zM755 1538h-219l-264 279h306z" />
<glyph unicode="&#xc9;" d="M1027 638h-598v-411h699v-227h-981v1456h978v-229h-696v-367h598v-222zM712 1814h306l-277 -279h-216z" />
<glyph unicode="&#xca;" d="M1027 638h-598v-411h699v-227h-981v1456h978v-229h-696v-367h598v-222zM1017 1613v-28h-221l-154 127l-153 -127h-217v30l290 241h161z" />
<glyph unicode="&#xcb;" d="M1027 638h-598v-411h699v-227h-981v1456h978v-229h-696v-367h598v-222zM261 1705q0 26 10 49t28 40t43 26.5t55 9.5t55 -9.5t43 -26.5t28 -40t10 -49t-10 -49t-28 -39.5t-43 -26t-55 -9.5t-55 9.5t-43 26t-28 39.5t-10 49zM741 1705q0 26 10 49t28 39.5t43 26t55 9.5 t55 -9.5t43 -26t28 -39.5t10 -49q0 -27 -10 -50t-28 -40t-43 -26.5t-55 -9.5t-55 9.5t-43 26.5t-28 40t-10 50z" />
<glyph unicode="&#xcc;" d="M193 1456h842v-227h-284v-1003h284v-226h-842v226h277v1003h-277v227zM713 1547h-219l-264 279h306z" />
<glyph unicode="&#xcd;" d="M193 1456h842v-227h-284v-1003h284v-226h-842v226h277v1003h-277v227zM670 1823h306l-277 -279h-216z" />
<glyph unicode="&#xce;" d="M193 1456h842v-227h-284v-1003h284v-226h-842v226h277v1003h-277v227zM975 1622v-28h-221l-154 127l-153 -127h-217v30l290 241h161z" />
<glyph unicode="&#xcf;" d="M193 1456h842v-227h-284v-1003h284v-226h-842v226h277v1003h-277v227zM219 1714q0 26 10 49t28 40t43 26.5t55 9.5t55 -9.5t43 -26.5t28 -40t10 -49t-10 -49t-28 -39.5t-43 -26t-55 -9.5t-55 9.5t-43 26t-28 39.5t-10 49zM699 1714q0 26 10 49t28 39.5t43 26t55 9.5 t55 -9.5t43 -26t28 -39.5t10 -49q0 -27 -10 -50t-28 -40t-43 -26.5t-55 -9.5t-55 9.5t-43 26.5t-28 40t-10 50z" />
<glyph unicode="&#xd0;" horiz-adv-x="1259" d="M155 0v643h-182v180h182v633h377q145 0 262.5 -49.5t201 -138t129 -211.5t45.5 -270v-120q0 -147 -45.5 -269.5t-127.5 -211t-197 -137.5t-254 -49h-391zM665 643h-227v-417h108q79 0 141.5 30t106 87t66.5 138.5t23 185.5v122q0 98 -22.5 178.5t-67 138.5t-110 90 t-151.5 32h-94v-405h227v-180z" />
<glyph unicode="&#xd1;" d="M1091 0h-280l-405 939v-939h-283v1456h283l402 -935l1 935h282v-1456zM977 1861q0 -45 -15.5 -89t-44 -78.5t-68 -55.5t-88.5 -21q-48 0 -83.5 13.5t-67 30t-62.5 30t-70 13.5q-36 0 -62.5 -26t-26.5 -72l-140 30q0 44 15.5 88t43.5 79t67.5 57t88.5 22q40 0 75 -13.5 t68.5 -30t67.5 -30t72 -13.5q36 0 63 25.5t27 71.5z" />
<glyph unicode="&#xd2;" d="M1147 621q0 -140 -37 -258t-107 -203t-170.5 -132.5t-226.5 -47.5t-224 47.5t-165 133t-102 203t-35 257.5v212q0 140 35 258t102 203.5t164.5 133.5t223.5 48q127 0 227.5 -48t170.5 -133.5t107 -203.5t37 -258v-212zM862 835q0 89 -14.5 164t-45.5 129t-79.5 84.5 t-117.5 30.5q-68 0 -114 -30.5t-74 -84.5t-40 -129t-12 -164v-214q0 -88 12 -163t40 -130t74 -86t115 -31q68 0 116.5 31t79 85.5t45.5 129.5t15 164v214zM728 1568h-219l-264 279h306z" />
<glyph unicode="&#xd3;" d="M1147 621q0 -140 -37 -258t-107 -203t-170.5 -132.5t-226.5 -47.5t-224 47.5t-165 133t-102 203t-35 257.5v212q0 140 35 258t102 203.5t164.5 133.5t223.5 48q127 0 227.5 -48t170.5 -133.5t107 -203.5t37 -258v-212zM862 835q0 89 -14.5 164t-45.5 129t-79.5 84.5 t-117.5 30.5q-68 0 -114 -30.5t-74 -84.5t-40 -129t-12 -164v-214q0 -88 12 -163t40 -130t74 -86t115 -31q68 0 116.5 31t79 85.5t45.5 129.5t15 164v214zM685 1844h306l-277 -279h-216z" />
<glyph unicode="&#xd4;" d="M1147 621q0 -140 -37 -258t-107 -203t-170.5 -132.5t-226.5 -47.5t-224 47.5t-165 133t-102 203t-35 257.5v212q0 140 35 258t102 203.5t164.5 133.5t223.5 48q127 0 227.5 -48t170.5 -133.5t107 -203.5t37 -258v-212zM862 835q0 89 -14.5 164t-45.5 129t-79.5 84.5 t-117.5 30.5q-68 0 -114 -30.5t-74 -84.5t-40 -129t-12 -164v-214q0 -88 12 -163t40 -130t74 -86t115 -31q68 0 116.5 31t79 85.5t45.5 129.5t15 164v214zM990 1643v-28h-221l-154 127l-153 -127h-217v30l290 241h161z" />
<glyph unicode="&#xd5;" d="M1147 621q0 -140 -37 -258t-107 -203t-170.5 -132.5t-226.5 -47.5t-224 47.5t-165 133t-102 203t-35 257.5v212q0 140 35 258t102 203.5t164.5 133.5t223.5 48q127 0 227.5 -48t170.5 -133.5t107 -203.5t37 -258v-212zM862 835q0 89 -14.5 164t-45.5 129t-79.5 84.5 t-117.5 30.5q-68 0 -114 -30.5t-74 -84.5t-40 -129t-12 -164v-214q0 -88 12 -163t40 -130t74 -86t115 -31q68 0 116.5 31t79 85.5t45.5 129.5t15 164v214zM979 1882q0 -45 -15.5 -89t-44 -78.5t-68 -55.5t-88.5 -21q-48 0 -83.5 13.5t-67 30t-62.5 30t-70 13.5 q-36 0 -62.5 -26t-26.5 -72l-140 30q0 44 15.5 88t43.5 79t67.5 57t88.5 22q40 0 75 -13.5t68.5 -30t67.5 -30t72 -13.5q36 0 63 25.5t27 71.5z" />
<glyph unicode="&#xd6;" d="M1147 621q0 -140 -37 -258t-107 -203t-170.5 -132.5t-226.5 -47.5t-224 47.5t-165 133t-102 203t-35 257.5v212q0 140 35 258t102 203.5t164.5 133.5t223.5 48q127 0 227.5 -48t170.5 -133.5t107 -203.5t37 -258v-212zM862 835q0 89 -14.5 164t-45.5 129t-79.5 84.5 t-117.5 30.5q-68 0 -114 -30.5t-74 -84.5t-40 -129t-12 -164v-214q0 -88 12 -163t40 -130t74 -86t115 -31q68 0 116.5 31t79 85.5t45.5 129.5t15 164v214zM234 1735q0 26 10 49t28 40t43 26.5t55 9.5t55 -9.5t43 -26.5t28 -40t10 -49t-10 -49t-28 -39.5t-43 -26t-55 -9.5 t-55 9.5t-43 26t-28 39.5t-10 49zM714 1735q0 26 10 49t28 39.5t43 26t55 9.5t55 -9.5t43 -26t28 -39.5t10 -49q0 -27 -10 -50t-28 -40t-43 -26.5t-55 -9.5t-55 9.5t-43 26.5t-28 40t-10 50z" />
<glyph unicode="&#xd7;" d="M157 371l309 315l-309 315l165 164l307 -313l307 313l165 -164l-309 -315l309 -315l-165 -164l-307 313l-307 -313z" />
<glyph unicode="&#xd8;" d="M1152 621q0 -140 -37 -258t-107 -203t-170.5 -132.5t-226.5 -47.5q-86 0 -158 21.5t-131 63.5l-91 -160h-183l157 278q-60 85 -90 195.5t-30 242.5v212q0 140 35 258t102 203.5t164.5 133.5t223.5 48q81 0 151.5 -20t129.5 -58l68 120h184l-130 -230q68 -86 103.5 -201.5 t35.5 -253.5v-212zM867 835q-1 45 -4.5 87t-11.5 80l-404 -715q29 -36 69 -56t95 -20q68 0 116.5 31t79 85.5t45.5 129.5t15 164v214zM370 621q0 -35 2 -68t6 -64l390 691q-30 30 -69 46.5t-89 16.5q-68 0 -114 -30.5t-74 -84.5t-40 -129t-12 -164v-214z" />
<glyph unicode="&#xd9;" d="M1101 1456l1 -965q0 -122 -33.5 -217t-97 -160.5t-155 -99.5t-208.5 -34q-110 0 -198.5 34t-151.5 99t-97.5 160.5t-34.5 217.5l1 965h281l1 -965q1 -141 51.5 -213t147.5 -72q103 0 157.5 72t55.5 213l1 965h279zM736 1544h-219l-264 279h306z" />
<glyph unicode="&#xda;" d="M1101 1456l1 -965q0 -122 -33.5 -217t-97 -160.5t-155 -99.5t-208.5 -34q-110 0 -198.5 34t-151.5 99t-97.5 160.5t-34.5 217.5l1 965h281l1 -965q1 -141 51.5 -213t147.5 -72q103 0 157.5 72t55.5 213l1 965h279zM693 1820h306l-277 -279h-216z" />
<glyph unicode="&#xdb;" d="M1101 1456l1 -965q0 -122 -33.5 -217t-97 -160.5t-155 -99.5t-208.5 -34q-110 0 -198.5 34t-151.5 99t-97.5 160.5t-34.5 217.5l1 965h281l1 -965q1 -141 51.5 -213t147.5 -72q103 0 157.5 72t55.5 213l1 965h279zM998 1619v-28h-221l-154 127l-153 -127h-217v30l290 241 h161z" />
<glyph unicode="&#xdc;" d="M1101 1456l1 -965q0 -122 -33.5 -217t-97 -160.5t-155 -99.5t-208.5 -34q-110 0 -198.5 34t-151.5 99t-97.5 160.5t-34.5 217.5l1 965h281l1 -965q1 -141 51.5 -213t147.5 -72q103 0 157.5 72t55.5 213l1 965h279zM242 1711q0 26 10 49t28 40t43 26.5t55 9.5t55 -9.5 t43 -26.5t28 -40t10 -49t-10 -49t-28 -39.5t-43 -26t-55 -9.5t-55 9.5t-43 26t-28 39.5t-10 49zM722 1711q0 26 10 49t28 39.5t43 26t55 9.5t55 -9.5t43 -26t28 -39.5t10 -49q0 -27 -10 -50t-28 -40t-43 -26.5t-55 -9.5t-55 9.5t-43 26.5t-28 40t-10 50z" />
<glyph unicode="&#xdd;" d="M628 785l287 671h309l-458 -952l-1 -504h-280l-1 516l-451 940h308zM697 1823h306l-277 -279h-216z" />
<glyph unicode="&#xde;" d="M415 1456v-271h227q129 0 228 -33.5t166.5 -92.5t102.5 -141.5t35 -179.5q0 -98 -35 -180.5t-102.5 -142t-166.5 -93t-228 -33.5h-227v-289h-279v1456h279zM415 961v-448h227q68 0 116 18.5t78.5 49.5t44.5 71.5t14 83.5t-14 84t-44.5 72t-78.5 50t-116 19h-227z" />
<glyph unicode="&#xdf;" d="M439 0h-277v1076q0 118 34.5 209t96 152.5t147 93t187.5 31.5q79 0 151 -22.5t126.5 -68.5t87 -114.5t32.5 -160.5q0 -50 -8 -86t-20.5 -63.5t-26.5 -50t-26.5 -46.5t-20.5 -52t-8 -66q0 -35 20 -67t49.5 -64.5t64 -68t64 -77t49.5 -92t20 -113.5q0 -89 -26.5 -158.5 t-77.5 -116.5t-125.5 -71.5t-169.5 -24.5q-39 0 -80 4t-79 11.5t-70 18t-53 24.5l54 221q16 -9 39 -19t51.5 -18t61.5 -13.5t68 -5.5q61 0 95 38.5t34 103.5q0 41 -20 74.5t-49.5 65t-64 64t-64 71.5t-49.5 88t-20 114q0 44 8.5 77t21 60t27.5 50.5t27.5 49t21 54.5t8.5 68 q0 37 -12.5 66.5t-32.5 50t-45 31.5t-50 11q-35 0 -66.5 -15.5t-54.5 -48t-36.5 -83t-13.5 -120.5v-1072z" />
<glyph unicode="&#xe0;" d="M817 0q-10 20 -17 46t-12 55q-23 -25 -53 -47t-66.5 -38.5t-80.5 -26t-95 -9.5q-83 0 -152.5 24t-119.5 67t-78 102.5t-28 129.5q0 171 127.5 264.5t380.5 93.5h155v64q0 78 -51 123.5t-147 45.5q-85 0 -124 -36.5t-39 -97.5h-278q0 69 30.5 131t89 109t143 74.5 t193.5 27.5q98 0 182.5 -24t146.5 -71t97 -118.5t35 -165.5v-464q0 -87 11 -144t32 -98v-17h-282zM552 195q42 0 78 10t65 26t50 36.5t33 41.5v186h-142q-65 0 -111 -12.5t-75 -35t-43 -54t-14 -68.5q0 -56 39.5 -93t119.5 -37zM709 1225h-219l-264 279h306z" />
<glyph unicode="&#xe1;" d="M817 0q-10 20 -17 46t-12 55q-23 -25 -53 -47t-66.5 -38.5t-80.5 -26t-95 -9.5q-83 0 -152.5 24t-119.5 67t-78 102.5t-28 129.5q0 171 127.5 264.5t380.5 93.5h155v64q0 78 -51 123.5t-147 45.5q-85 0 -124 -36.5t-39 -97.5h-278q0 69 30.5 131t89 109t143 74.5 t193.5 27.5q98 0 182.5 -24t146.5 -71t97 -118.5t35 -165.5v-464q0 -87 11 -144t32 -98v-17h-282zM552 195q42 0 78 10t65 26t50 36.5t33 41.5v186h-142q-65 0 -111 -12.5t-75 -35t-43 -54t-14 -68.5q0 -56 39.5 -93t119.5 -37zM666 1501h306l-277 -279h-216z" />
<glyph unicode="&#xe2;" d="M817 0q-10 20 -17 46t-12 55q-23 -25 -53 -47t-66.5 -38.5t-80.5 -26t-95 -9.5q-83 0 -152.5 24t-119.5 67t-78 102.5t-28 129.5q0 171 127.5 264.5t380.5 93.5h155v64q0 78 -51 123.5t-147 45.5q-85 0 -124 -36.5t-39 -97.5h-278q0 69 30.5 131t89 109t143 74.5 t193.5 27.5q98 0 182.5 -24t146.5 -71t97 -118.5t35 -165.5v-464q0 -87 11 -144t32 -98v-17h-282zM552 195q42 0 78 10t65 26t50 36.5t33 41.5v186h-142q-65 0 -111 -12.5t-75 -35t-43 -54t-14 -68.5q0 -56 39.5 -93t119.5 -37zM971 1300v-28h-221l-154 127l-153 -127h-217 v30l290 241h161z" />
<glyph unicode="&#xe3;" d="M817 0q-10 20 -17 46t-12 55q-23 -25 -53 -47t-66.5 -38.5t-80.5 -26t-95 -9.5q-83 0 -152.5 24t-119.5 67t-78 102.5t-28 129.5q0 171 127.5 264.5t380.5 93.5h155v64q0 78 -51 123.5t-147 45.5q-85 0 -124 -36.5t-39 -97.5h-278q0 69 30.5 131t89 109t143 74.5 t193.5 27.5q98 0 182.5 -24t146.5 -71t97 -118.5t35 -165.5v-464q0 -87 11 -144t32 -98v-17h-282zM552 195q42 0 78 10t65 26t50 36.5t33 41.5v186h-142q-65 0 -111 -12.5t-75 -35t-43 -54t-14 -68.5q0 -56 39.5 -93t119.5 -37zM960 1539q0 -45 -15.5 -89t-44 -78.5 t-68 -55.5t-88.5 -21q-48 0 -83.5 13.5t-67 30t-62.5 30t-70 13.5q-36 0 -62.5 -26t-26.5 -72l-140 30q0 44 15.5 88t43.5 79t67.5 57t88.5 22q40 0 75 -13.5t68.5 -30t67.5 -30t72 -13.5q36 0 63 25.5t27 71.5z" />
<glyph unicode="&#xe4;" d="M817 0q-10 20 -17 46t-12 55q-23 -25 -53 -47t-66.5 -38.5t-80.5 -26t-95 -9.5q-83 0 -152.5 24t-119.5 67t-78 102.5t-28 129.5q0 171 127.5 264.5t380.5 93.5h155v64q0 78 -51 123.5t-147 45.5q-85 0 -124 -36.5t-39 -97.5h-278q0 69 30.5 131t89 109t143 74.5 t193.5 27.5q98 0 182.5 -24t146.5 -71t97 -118.5t35 -165.5v-464q0 -87 11 -144t32 -98v-17h-282zM552 195q42 0 78 10t65 26t50 36.5t33 41.5v186h-142q-65 0 -111 -12.5t-75 -35t-43 -54t-14 -68.5q0 -56 39.5 -93t119.5 -37zM215 1392q0 26 10 49t28 40t43 26.5t55 9.5 t55 -9.5t43 -26.5t28 -40t10 -49t-10 -49t-28 -39.5t-43 -26t-55 -9.5t-55 9.5t-43 26t-28 39.5t-10 49zM695 1392q0 26 10 49t28 39.5t43 26t55 9.5t55 -9.5t43 -26t28 -39.5t10 -49q0 -27 -10 -50t-28 -40t-43 -26.5t-55 -9.5t-55 9.5t-43 26.5t-28 40t-10 50z" />
<glyph unicode="&#xe5;" d="M817 0q-10 20 -17 46t-12 55q-23 -25 -53 -47t-66.5 -38.5t-80.5 -26t-95 -9.5q-83 0 -152.5 24t-119.5 67t-78 102.5t-28 129.5q0 171 127.5 264.5t380.5 93.5h155v64q0 78 -51 123.5t-147 45.5q-85 0 -124 -36.5t-39 -97.5h-278q0 69 30.5 131t89 109t143 74.5 t193.5 27.5q98 0 182.5 -24t146.5 -71t97 -118.5t35 -165.5v-464q0 -87 11 -144t32 -98v-17h-282zM552 195q42 0 78 10t65 26t50 36.5t33 41.5v186h-142q-65 0 -111 -12.5t-75 -35t-43 -54t-14 -68.5q0 -56 39.5 -93t119.5 -37zM385 1410q0 42 16.5 78t45.5 62t68 41t83 15 t82 -15t66 -41t44 -62t16 -78t-16 -77.5t-44 -61t-66 -39.5t-82 -14t-83 14t-68 39.5t-45.5 61t-16.5 77.5zM499 1410q0 -44 28.5 -71t70.5 -27t68.5 27t26.5 71q0 45 -26.5 72.5t-68.5 27.5t-70.5 -27.5t-28.5 -72.5z" />
<glyph unicode="&#xe6;" d="M868 -20q-90 0 -157.5 31t-112.5 88q-18 -24 -41.5 -46t-53 -38t-64 -25.5t-75.5 -9.5q-77 0 -136 22.5t-99.5 63.5t-61.5 100t-21 131q0 169 114 260t337 91h3v119q0 53 -18.5 81.5t-59.5 28.5q-47 0 -69.5 -23.5t-22.5 -77.5l-261 9q0 72 23.5 131t67.5 100t106.5 63.5 t141.5 22.5q145 0 232 -75q42 36 98.5 56t128.5 19q74 0 134.5 -28t103 -80t66 -127t23.5 -168v-245h-451v-91q0 -36 9 -65.5t30 -50.5t54 -32.5t81 -11.5q34 0 61 4.5t49.5 11t42.5 15.5t41 18l55 -192q-20 -16 -50.5 -30.5t-69 -25.5t-83.5 -17.5t-95 -6.5zM743 643h195 v112q0 57 -21.5 89.5t-69.5 32.5q-34 0 -54.5 -13t-31.5 -36t-14.5 -55t-3.5 -69v-61zM434 185q17 0 34 7t32 19v253h-1q-43 0 -75.5 -14t-55 -37.5t-34 -54.5t-11.5 -65q0 -49 27.5 -78.5t83.5 -29.5z" />
<glyph unicode="&#xe7;" d="M620 202q41 0 78 12t65 34t43.5 53t13.5 69h262q2 -84 -34.5 -156t-99.5 -124t-146.5 -81.5t-176.5 -29.5q-126 0 -221 42.5t-158.5 116.5t-96 173.5t-32.5 213.5v30q0 114 32 213.5t96 173.5t158.5 117t219.5 43q100 0 185 -30t146.5 -84.5t95.5 -132t32 -173.5h-262 q2 40 -12 76t-41 62t-65 41.5t-83 15.5q-66 0 -109 -27t-68.5 -72t-36 -103t-10.5 -120v-30q0 -63 10 -121.5t35.5 -103t69 -71.5t110.5 -27zM727 10l-11 -56q28 -5 55 -16.5t48 -32t34 -51t13 -73.5q0 -53 -22 -96t-65.5 -73.5t-107.5 -47.5t-149 -17l-7 160q51 0 85 19 t34 64q0 42 -34.5 58t-110.5 21l31 141h207z" />
<glyph unicode="&#xe8;" d="M666 -20q-125 0 -227 41t-175 111.5t-112.5 166t-39.5 204.5v40q0 124 39 226.5t109 176.5t166 115t209 41q117 0 208.5 -38.5t155 -108.5t96.5 -168.5t33 -217.5v-118h-734q8 -55 32.5 -100.5t62.5 -78.5t87 -51t107 -18q41 0 81.5 8t77.5 23.5t69 38.5t56 54l139 -150 q-26 -37 -67.5 -72.5t-98 -63t-125.5 -44.5t-149 -17zM633 877q-47 0 -86 -16.5t-68.5 -47.5t-49.5 -74t-30 -96h456v22q-2 44 -17 83t-43 67.5t-68.5 45t-93.5 16.5zM714 1226h-219l-264 279h306z" />
<glyph unicode="&#xe9;" d="M666 -20q-125 0 -227 41t-175 111.5t-112.5 166t-39.5 204.5v40q0 124 39 226.5t109 176.5t166 115t209 41q117 0 208.5 -38.5t155 -108.5t96.5 -168.5t33 -217.5v-118h-734q8 -55 32.5 -100.5t62.5 -78.5t87 -51t107 -18q41 0 81.5 8t77.5 23.5t69 38.5t56 54l139 -150 q-26 -37 -67.5 -72.5t-98 -63t-125.5 -44.5t-149 -17zM633 877q-47 0 -86 -16.5t-68.5 -47.5t-49.5 -74t-30 -96h456v22q-2 44 -17 83t-43 67.5t-68.5 45t-93.5 16.5zM671 1502h306l-277 -279h-216z" />
<glyph unicode="&#xea;" d="M666 -20q-125 0 -227 41t-175 111.5t-112.5 166t-39.5 204.5v40q0 124 39 226.5t109 176.5t166 115t209 41q117 0 208.5 -38.5t155 -108.5t96.5 -168.5t33 -217.5v-118h-734q8 -55 32.5 -100.5t62.5 -78.5t87 -51t107 -18q41 0 81.5 8t77.5 23.5t69 38.5t56 54l139 -150 q-26 -37 -67.5 -72.5t-98 -63t-125.5 -44.5t-149 -17zM633 877q-47 0 -86 -16.5t-68.5 -47.5t-49.5 -74t-30 -96h456v22q-2 44 -17 83t-43 67.5t-68.5 45t-93.5 16.5zM976 1301v-28h-221l-154 127l-153 -127h-217v30l290 241h161z" />
<glyph unicode="&#xeb;" d="M666 -20q-125 0 -227 41t-175 111.5t-112.5 166t-39.5 204.5v40q0 124 39 226.5t109 176.5t166 115t209 41q117 0 208.5 -38.5t155 -108.5t96.5 -168.5t33 -217.5v-118h-734q8 -55 32.5 -100.5t62.5 -78.5t87 -51t107 -18q41 0 81.5 8t77.5 23.5t69 38.5t56 54l139 -150 q-26 -37 -67.5 -72.5t-98 -63t-125.5 -44.5t-149 -17zM633 877q-47 0 -86 -16.5t-68.5 -47.5t-49.5 -74t-30 -96h456v22q-2 44 -17 83t-43 67.5t-68.5 45t-93.5 16.5zM220 1393q0 26 10 49t28 40t43 26.5t55 9.5t55 -9.5t43 -26.5t28 -40t10 -49t-10 -49t-28 -39.5t-43 -26 t-55 -9.5t-55 9.5t-43 26t-28 39.5t-10 49zM700 1393q0 26 10 49t28 39.5t43 26t55 9.5t55 -9.5t43 -26t28 -39.5t10 -49q0 -27 -10 -50t-28 -40t-43 -26.5t-55 -9.5t-55 9.5t-43 26.5t-28 40t-10 50z" />
<glyph unicode="&#xec;" d="M199 1082h605v-856h310v-226h-915v226h324v629h-324v227zM780 1199h-219l-264 279h306z" />
<glyph unicode="&#xed;" d="M199 1082h605v-856h310v-226h-915v226h324v629h-324v227zM737 1476h306l-277 -279h-216z" />
<glyph unicode="&#xee;" d="M199 1082h605v-856h310v-226h-915v226h324v629h-324v227zM1042 1274v-28h-221l-154 127l-153 -127h-217v30l290 241h161z" />
<glyph unicode="&#xef;" d="M199 1082h605v-856h310v-226h-915v226h324v629h-324v227zM285 1366q0 26 10 49t28 40t43 26.5t55 9.5t55 -9.5t43 -26.5t28 -40t10 -49t-10 -49t-28 -39.5t-43 -26t-55 -9.5t-55 9.5t-43 26t-28 39.5t-10 49zM765 1366q0 26 10 49t28 39.5t43 26t55 9.5t55 -9.5t43 -26 t28 -39.5t10 -49q0 -27 -10 -50t-28 -40t-43 -26.5t-55 -9.5t-55 9.5t-43 26.5t-28 40t-10 50z" />
<glyph unicode="&#xf0;" d="M899 1264q95 -115 148.5 -270t53.5 -347v-68q0 -135 -41.5 -246t-114.5 -189.5t-172.5 -121.5t-214.5 -43q-116 0 -212 38t-164.5 104.5t-106 155.5t-37.5 191q0 112 34.5 204t98 157.5t154.5 101.5t205 36q75 0 142.5 -23t121.5 -65q-21 79 -55 142t-78 112l-242 -133 l-78 112l211 117q-33 22 -68 39t-70 30l88 217q167 -42 297 -150l199 110l78 -113zM822 661q-16 19 -41.5 36t-60 30t-78.5 20.5t-98 7.5t-96 -24t-71.5 -63.5t-45 -91.5t-15.5 -108q0 -54 16.5 -102t48 -84.5t77 -58t104.5 -21.5q60 0 108.5 26.5t82 73t51.5 111t18 141.5 v95v12z" />
<glyph unicode="&#xf1;" d="M393 1082l17 -150q58 81 141 125.5t184 44.5q82 0 150 -24t117.5 -76.5t77 -135t27.5 -200.5v-666h-278v662q0 64 -14.5 105.5t-41.5 65.5t-65 33.5t-86 9.5q-71 0 -121 -28.5t-81 -78.5v-769h-279v1082h252zM971 1539q0 -45 -15.5 -89t-44 -78.5t-68 -55.5t-88.5 -21 q-48 0 -83.5 13.5t-67 30t-62.5 30t-70 13.5q-36 0 -62.5 -26t-26.5 -72l-140 30q0 44 15.5 88t43.5 79t67.5 57t88.5 22q40 0 75 -13.5t68.5 -30t67.5 -30t72 -13.5q36 0 63 25.5t27 71.5z" />
<glyph unicode="&#xf2;" d="M103 551q0 118 34 218.5t99.5 174.5t160 116t216.5 42t217 -42t160.5 -116t99.5 -174.5t34 -218.5v-21q0 -119 -34 -219.5t-99 -174.5t-160 -115.5t-216 -41.5q-122 0 -217.5 41.5t-161 115.5t-99.5 174.5t-34 219.5v21zM381 530q0 -68 13 -127.5t41 -104t72.5 -70.5 t107.5 -26q61 0 105 26t71.5 70.5t40.5 104t13 127.5v21q0 66 -13 125t-40.5 104t-71.5 71t-107 26q-62 0 -106 -26t-72 -71t-41 -104t-13 -125v-21zM733 1225h-219l-264 279h306z" />
<glyph unicode="&#xf3;" d="M103 551q0 118 34 218.5t99.5 174.5t160 116t216.5 42t217 -42t160.5 -116t99.5 -174.5t34 -218.5v-21q0 -119 -34 -219.5t-99 -174.5t-160 -115.5t-216 -41.5q-122 0 -217.5 41.5t-161 115.5t-99.5 174.5t-34 219.5v21zM381 530q0 -68 13 -127.5t41 -104t72.5 -70.5 t107.5 -26q61 0 105 26t71.5 70.5t40.5 104t13 127.5v21q0 66 -13 125t-40.5 104t-71.5 71t-107 26q-62 0 -106 -26t-72 -71t-41 -104t-13 -125v-21zM690 1501h306l-277 -279h-216z" />
<glyph unicode="&#xf4;" d="M103 551q0 118 34 218.5t99.5 174.5t160 116t216.5 42t217 -42t160.5 -116t99.5 -174.5t34 -218.5v-21q0 -119 -34 -219.5t-99 -174.5t-160 -115.5t-216 -41.5q-122 0 -217.5 41.5t-161 115.5t-99.5 174.5t-34 219.5v21zM381 530q0 -68 13 -127.5t41 -104t72.5 -70.5 t107.5 -26q61 0 105 26t71.5 70.5t40.5 104t13 127.5v21q0 66 -13 125t-40.5 104t-71.5 71t-107 26q-62 0 -106 -26t-72 -71t-41 -104t-13 -125v-21zM995 1300v-28h-221l-154 127l-153 -127h-217v30l290 241h161z" />
<glyph unicode="&#xf5;" d="M103 551q0 118 34 218.5t99.5 174.5t160 116t216.5 42t217 -42t160.5 -116t99.5 -174.5t34 -218.5v-21q0 -119 -34 -219.5t-99 -174.5t-160 -115.5t-216 -41.5q-122 0 -217.5 41.5t-161 115.5t-99.5 174.5t-34 219.5v21zM381 530q0 -68 13 -127.5t41 -104t72.5 -70.5 t107.5 -26q61 0 105 26t71.5 70.5t40.5 104t13 127.5v21q0 66 -13 125t-40.5 104t-71.5 71t-107 26q-62 0 -106 -26t-72 -71t-41 -104t-13 -125v-21zM984 1539q0 -45 -15.5 -89t-44 -78.5t-68 -55.5t-88.5 -21q-48 0 -83.5 13.5t-67 30t-62.5 30t-70 13.5q-36 0 -62.5 -26 t-26.5 -72l-140 30q0 44 15.5 88t43.5 79t67.5 57t88.5 22q40 0 75 -13.5t68.5 -30t67.5 -30t72 -13.5q36 0 63 25.5t27 71.5z" />
<glyph unicode="&#xf6;" d="M103 551q0 118 34 218.5t99.5 174.5t160 116t216.5 42t217 -42t160.5 -116t99.5 -174.5t34 -218.5v-21q0 -119 -34 -219.5t-99 -174.5t-160 -115.5t-216 -41.5q-122 0 -217.5 41.5t-161 115.5t-99.5 174.5t-34 219.5v21zM381 530q0 -68 13 -127.5t41 -104t72.5 -70.5 t107.5 -26q61 0 105 26t71.5 70.5t40.5 104t13 127.5v21q0 66 -13 125t-40.5 104t-71.5 71t-107 26q-62 0 -106 -26t-72 -71t-41 -104t-13 -125v-21zM239 1392q0 26 10 49t28 40t43 26.5t55 9.5t55 -9.5t43 -26.5t28 -40t10 -49t-10 -49t-28 -39.5t-43 -26t-55 -9.5t-55 9.5 t-43 26t-28 39.5t-10 49zM719 1392q0 26 10 49t28 39.5t43 26t55 9.5t55 -9.5t43 -26t28 -39.5t10 -49q0 -27 -10 -50t-28 -40t-43 -26.5t-55 -9.5t-55 9.5t-43 26.5t-28 40t-10 50z" />
<glyph unicode="&#xf7;" d="M1132 573h-1024v227h1024v-227zM465 1089q0 61 41 101t111 40q71 0 112 -40t41 -101t-41 -101t-112 -40q-70 0 -111 40t-41 101zM463 278q0 30 10.5 56t30.5 45t48 30t63 11q71 0 112 -40.5t41 -101.5t-41 -101t-112 -40q-70 0 -111 40t-41 101z" />
<glyph unicode="&#xf8;" d="M103 551q0 118 34 218.5t99.5 174.5t160 116t216.5 42q104 0 191 -32l71 145h157l-104 -213q96 -74 146 -190.5t50 -260.5v-21q0 -119 -34 -219.5t-99 -174.5t-160 -115.5t-216 -41.5q-94 0 -175 26l-71 -146h-157l102 208q-103 72 -157 192.5t-54 270.5v21zM381 530 q0 -66 11.5 -123.5t37.5 -101.5l271 555q-39 17 -88 17q-62 0 -106 -26t-72 -71t-41 -104t-13 -125v-21zM845 551q0 57 -9.5 108.5t-29.5 93.5l-264 -540q35 -11 73 -11q61 0 105 26t71.5 70.5t40.5 104t13 127.5v21z" />
<glyph unicode="&#xf9;" d="M831 152q-55 -81 -132.5 -127t-169.5 -46q-84 0 -154 26t-120 82.5t-77.5 144t-27.5 210.5v640h278v-642q0 -66 9.5 -111t30.5 -72.5t55 -39.5t83 -12q83 0 135 31.5t79 86.5v759h279v-1082h-252zM735 1204h-219l-264 279h306z" />
<glyph unicode="&#xfa;" d="M831 152q-55 -81 -132.5 -127t-169.5 -46q-84 0 -154 26t-120 82.5t-77.5 144t-27.5 210.5v640h278v-642q0 -66 9.5 -111t30.5 -72.5t55 -39.5t83 -12q83 0 135 31.5t79 86.5v759h279v-1082h-252zM692 1480h306l-277 -279h-216z" />
<glyph unicode="&#xfb;" d="M831 152q-55 -81 -132.5 -127t-169.5 -46q-84 0 -154 26t-120 82.5t-77.5 144t-27.5 210.5v640h278v-642q0 -66 9.5 -111t30.5 -72.5t55 -39.5t83 -12q83 0 135 31.5t79 86.5v759h279v-1082h-252zM997 1279v-28h-221l-154 127l-153 -127h-217v30l290 241h161z" />
<glyph unicode="&#xfc;" d="M831 152q-55 -81 -132.5 -127t-169.5 -46q-84 0 -154 26t-120 82.5t-77.5 144t-27.5 210.5v640h278v-642q0 -66 9.5 -111t30.5 -72.5t55 -39.5t83 -12q83 0 135 31.5t79 86.5v759h279v-1082h-252zM241 1371q0 26 10 49t28 40t43 26.5t55 9.5t55 -9.5t43 -26.5t28 -40 t10 -49t-10 -49t-28 -39.5t-43 -26t-55 -9.5t-55 9.5t-43 26t-28 39.5t-10 49zM721 1371q0 26 10 49t28 39.5t43 26t55 9.5t55 -9.5t43 -26t28 -39.5t10 -49q0 -27 -10 -50t-28 -40t-43 -26.5t-55 -9.5t-55 9.5t-43 26.5t-28 40t-10 50z" />
<glyph unicode="&#xfd;" d="M602 454l32 -116l288 744h307l-549 -1244q-18 -41 -46.5 -89t-71.5 -89t-104.5 -69t-145.5 -28q-20 0 -37 1.5t-33 4t-31.5 6t-33.5 8.5l34 212q17 0 43.5 -1.5t42.5 -1.5q33 0 58.5 20t43.5 44t29 44t15 20l67 126l-458 1036h304zM716 1480h306l-277 -279h-216z" />
<glyph unicode="&#xfe;" d="M1113 531q0 -118 -27.5 -219t-81 -174.5t-132 -115.5t-180.5 -42q-88 0 -154 30t-115 85v-511h-278v1959h278v-556q49 55 114.5 85t152.5 30q103 0 182 -39.5t132.5 -112t81 -174t27.5 -224.5v-21zM835 552q0 68 -12.5 127.5t-38.5 103t-68 68.5t-100 25 q-73 0 -120 -28.5t-73 -81.5v-450q26 -52 73 -82.5t122 -30.5q59 0 100.5 26t67.5 71t37.5 104.5t11.5 126.5v21z" />
<glyph unicode="&#xff;" d="M602 454l32 -116l288 744h307l-549 -1244q-18 -41 -46.5 -89t-71.5 -89t-104.5 -69t-145.5 -28q-20 0 -37 1.5t-33 4t-31.5 6t-33.5 8.5l34 212q17 0 43.5 -1.5t42.5 -1.5q33 0 58.5 20t43.5 44t29 44t15 20l67 126l-458 1036h304zM265 1371q0 26 10 49t28 40t43 26.5 t55 9.5t55 -9.5t43 -26.5t28 -40t10 -49t-10 -49t-28 -39.5t-43 -26t-55 -9.5t-55 9.5t-43 26t-28 39.5t-10 49zM745 1371q0 26 10 49t28 39.5t43 26t55 9.5t55 -9.5t43 -26t28 -39.5t10 -49q0 -27 -10 -50t-28 -40t-43 -26.5t-55 -9.5t-55 9.5t-43 26.5t-28 40t-10 50z" />
<glyph unicode="&#x100;" d="M847 304h-437l-86 -304h-296l477 1456h255l468 -1456h-296zM479 543h302l-149 536zM1001 1614h-730v164h730v-164z" />
<glyph unicode="&#x101;" d="M817 0q-10 20 -17 46t-12 55q-23 -25 -53 -47t-66.5 -38.5t-80.5 -26t-95 -9.5q-83 0 -152.5 24t-119.5 67t-78 102.5t-28 129.5q0 171 127.5 264.5t380.5 93.5h155v64q0 78 -51 123.5t-147 45.5q-85 0 -124 -36.5t-39 -97.5h-278q0 69 30.5 131t89 109t143 74.5 t193.5 27.5q98 0 182.5 -24t146.5 -71t97 -118.5t35 -165.5v-464q0 -87 11 -144t32 -98v-17h-282zM552 195q42 0 78 10t65 26t50 36.5t33 41.5v186h-142q-65 0 -111 -12.5t-75 -35t-43 -54t-14 -68.5q0 -56 39.5 -93t119.5 -37zM964 1292h-730v164h730v-164z" />
<glyph unicode="&#x102;" d="M847 304h-437l-86 -304h-296l477 1456h255l468 -1456h-296zM479 543h302l-149 536zM974 1857q0 -65 -23.5 -119t-68 -92.5t-107.5 -60t-141 -21.5q-79 0 -142 21.5t-107.5 60t-68 92.5t-23.5 119h200q0 -26 7.5 -50.5t24.5 -43t43.5 -29.5t65.5 -11q38 0 64.5 11t43 29.5 t24 43t7.5 50.5h201z" />
<glyph unicode="&#x103;" d="M817 0q-10 20 -17 46t-12 55q-23 -25 -53 -47t-66.5 -38.5t-80.5 -26t-95 -9.5q-83 0 -152.5 24t-119.5 67t-78 102.5t-28 129.5q0 171 127.5 264.5t380.5 93.5h155v64q0 78 -51 123.5t-147 45.5q-85 0 -124 -36.5t-39 -97.5h-278q0 69 30.5 131t89 109t143 74.5 t193.5 27.5q98 0 182.5 -24t146.5 -71t97 -118.5t35 -165.5v-464q0 -87 11 -144t32 -98v-17h-282zM552 195q42 0 78 10t65 26t50 36.5t33 41.5v186h-142q-65 0 -111 -12.5t-75 -35t-43 -54t-14 -68.5q0 -56 39.5 -93t119.5 -37zM938 1535q0 -65 -23.5 -119t-68 -92.5 t-107.5 -60t-141 -21.5q-79 0 -142 21.5t-107.5 60t-68 92.5t-23.5 119h200q0 -26 7.5 -50.5t24.5 -43t43.5 -29.5t65.5 -11q38 0 64.5 11t43 29.5t24 43t7.5 50.5h201z" />
<glyph unicode="&#x104;" d="M760 1456l468 -1456h-69q-45 -18 -75 -38t-48 -42t-25.5 -46.5t-7.5 -51.5q0 -29 15 -48.5t52 -19.5q29 0 49 7t34 13l47 -154q-28 -15 -72.5 -29.5t-113.5 -14.5q-46 0 -86.5 13.5t-70.5 39.5t-47.5 64.5t-17.5 89.5q0 61 34 121.5t102 109.5l-81 290h-437l-86 -304 h-296l477 1456h255zM479 543h302l-149 536z" />
<glyph unicode="&#x105;" d="M812 10q-8 19 -13.5 42t-10.5 49q-23 -25 -53 -47t-66.5 -38.5t-80.5 -26t-95 -9.5q-83 0 -152.5 24t-119.5 67t-78 102.5t-28 129.5q0 171 127.5 264.5t380.5 93.5h155v64q0 78 -51 123.5t-147 45.5q-85 0 -124 -36.5t-39 -97.5h-278q0 69 30.5 131t89 109t143 74.5 t193.5 27.5q98 0 182.5 -24t146.5 -71t97 -118.5t35 -165.5v-464q0 -87 11 -144t32 -98v-17h-51q-45 -18 -75 -38t-48 -42t-25.5 -46.5t-7.5 -51.5q0 -29 15 -48.5t52 -19.5q29 0 49 7t34 13l47 -154q-28 -15 -72.5 -29.5t-113.5 -14.5q-46 0 -86.5 13.5t-70.5 39.5 t-47.5 64.5t-17.5 89.5q0 60 33 119.5t98 107.5zM552 195q42 0 78 10t65 26t50 36.5t33 41.5v186h-142q-65 0 -111 -12.5t-75 -35t-43 -54t-14 -68.5q0 -56 39.5 -93t119.5 -37z" />
<glyph unicode="&#x106;" d="M1142 456q-7 -110 -47.5 -198t-108.5 -150t-162 -95.5t-208 -33.5q-129 0 -229 47.5t-168 133t-104 205.5t-36 264v196q0 145 38 265t108 206t169.5 133.5t223.5 47.5q120 0 213.5 -34t159.5 -97t104 -154t48 -205h-280q-4 65 -19.5 114t-45 81.5t-74 49t-106.5 16.5 q-65 0 -113 -28t-79.5 -82t-46.5 -132.5t-15 -178.5v-198q0 -215 60.5 -318t191.5 -103q110 0 174 58.5t71 189.5h281zM753 1822h306l-277 -279h-216z" />
<glyph unicode="&#x107;" d="M620 202q41 0 78 12t65 34t43.5 53t13.5 69h262q2 -84 -34.5 -156t-99.5 -124t-146.5 -81.5t-176.5 -29.5q-126 0 -221 42.5t-158.5 116.5t-96 173.5t-32.5 213.5v30q0 114 32 213.5t96 173.5t158.5 117t219.5 43q100 0 185 -30t146.5 -84.5t95.5 -132t32 -173.5h-262 q2 40 -12 76t-41 62t-65 41.5t-83 15.5q-66 0 -109 -27t-68.5 -72t-36 -103t-10.5 -120v-30q0 -63 10 -121.5t35.5 -103t69 -71.5t110.5 -27zM698 1501h306l-277 -279h-216z" />
<glyph unicode="&#x108;" d="M1142 456q-7 -110 -47.5 -198t-108.5 -150t-162 -95.5t-208 -33.5q-129 0 -229 47.5t-168 133t-104 205.5t-36 264v196q0 145 38 265t108 206t169.5 133.5t223.5 47.5q120 0 213.5 -34t159.5 -97t104 -154t48 -205h-280q-4 65 -19.5 114t-45 81.5t-74 49t-106.5 16.5 q-65 0 -113 -28t-79.5 -82t-46.5 -132.5t-15 -178.5v-198q0 -215 60.5 -318t191.5 -103q110 0 174 58.5t71 189.5h281zM1058 1621v-28h-221l-154 127l-153 -127h-217v30l290 241h161z" />
<glyph unicode="&#x109;" d="M620 202q41 0 78 12t65 34t43.5 53t13.5 69h262q2 -84 -34.5 -156t-99.5 -124t-146.5 -81.5t-176.5 -29.5q-126 0 -221 42.5t-158.5 116.5t-96 173.5t-32.5 213.5v30q0 114 32 213.5t96 173.5t158.5 117t219.5 43q100 0 185 -30t146.5 -84.5t95.5 -132t32 -173.5h-262 q2 40 -12 76t-41 62t-65 41.5t-83 15.5q-66 0 -109 -27t-68.5 -72t-36 -103t-10.5 -120v-30q0 -63 10 -121.5t35.5 -103t69 -71.5t110.5 -27zM1003 1300v-28h-221l-154 127l-153 -127h-217v30l290 241h161z" />
<glyph unicode="&#x10a;" d="M1142 456q-7 -110 -47.5 -198t-108.5 -150t-162 -95.5t-208 -33.5q-129 0 -229 47.5t-168 133t-104 205.5t-36 264v196q0 145 38 265t108 206t169.5 133.5t223.5 47.5q120 0 213.5 -34t159.5 -97t104 -154t48 -205h-280q-4 65 -19.5 114t-45 81.5t-74 49t-106.5 16.5 q-65 0 -113 -28t-79.5 -82t-46.5 -132.5t-15 -178.5v-198q0 -215 60.5 -318t191.5 -103q110 0 174 58.5t71 189.5h281zM531 1727q0 61 40 100.5t110 39.5t110 -39.5t40 -100.5q0 -60 -40 -99.5t-110 -39.5t-110 39.5t-40 99.5z" />
<glyph unicode="&#x10b;" d="M620 202q41 0 78 12t65 34t43.5 53t13.5 69h262q2 -84 -34.5 -156t-99.5 -124t-146.5 -81.5t-176.5 -29.5q-126 0 -221 42.5t-158.5 116.5t-96 173.5t-32.5 213.5v30q0 114 32 213.5t96 173.5t158.5 117t219.5 43q100 0 185 -30t146.5 -84.5t95.5 -132t32 -173.5h-262 q2 40 -12 76t-41 62t-65 41.5t-83 15.5q-66 0 -109 -27t-68.5 -72t-36 -103t-10.5 -120v-30q0 -63 10 -121.5t35.5 -103t69 -71.5t110.5 -27zM476 1406q0 61 40 100.5t110 39.5t110 -39.5t40 -100.5q0 -60 -40 -99.5t-110 -39.5t-110 39.5t-40 99.5z" />
<glyph unicode="&#x10c;" d="M1142 456q-7 -110 -47.5 -198t-108.5 -150t-162 -95.5t-208 -33.5q-129 0 -229 47.5t-168 133t-104 205.5t-36 264v196q0 145 38 265t108 206t169.5 133.5t223.5 47.5q120 0 213.5 -34t159.5 -97t104 -154t48 -205h-280q-4 65 -19.5 114t-45 81.5t-74 49t-106.5 16.5 q-65 0 -113 -28t-79.5 -82t-46.5 -132.5t-15 -178.5v-198q0 -215 60.5 -318t191.5 -103q110 0 174 58.5t71 189.5h281zM682 1739l147 126h237v-19l-296 -253h-175l-296 252v20h237z" />
<glyph unicode="&#x10d;" d="M620 202q41 0 78 12t65 34t43.5 53t13.5 69h262q2 -84 -34.5 -156t-99.5 -124t-146.5 -81.5t-176.5 -29.5q-126 0 -221 42.5t-158.5 116.5t-96 173.5t-32.5 213.5v30q0 114 32 213.5t96 173.5t158.5 117t219.5 43q100 0 185 -30t146.5 -84.5t95.5 -132t32 -173.5h-262 q2 40 -12 76t-41 62t-65 41.5t-83 15.5q-66 0 -109 -27t-68.5 -72t-36 -103t-10.5 -120v-30q0 -63 10 -121.5t35.5 -103t69 -71.5t110.5 -27zM628 1418l147 126h237v-19l-296 -253h-175l-296 252v20h237z" />
<glyph unicode="&#x10e;" d="M125 0v1456h377q145 0 262.5 -49.5t201 -138t129 -211.5t45.5 -270v-120q0 -147 -45.5 -269.5t-127.5 -211t-197 -137.5t-254 -49h-391zM408 1228v-1002h108q79 0 141.5 30t106 87t66.5 138.5t23 185.5v122q0 98 -22.5 178.5t-67 138.5t-110 90t-151.5 32h-94zM538 1731 l147 126h237v-19l-296 -253h-175l-296 252v20h237z" />
<glyph unicode="&#x10f;" horiz-adv-x="1379" d="M112 549q0 123 28.5 225t83.5 175t133.5 113t179.5 40q85 0 149.5 -30.5t114.5 -86.5v551h279v-1536h-251l-14 113q-51 -63 -120 -98t-160 -35q-99 0 -177.5 41.5t-133 114.5t-83.5 173.5t-29 218.5v21zM390 528q0 -68 11.5 -126.5t37.5 -102t67 -68.5t100 -25 q72 0 119.5 31t75.5 85v438q-28 55 -75 85.5t-118 30.5q-59 0 -100.5 -25.5t-67.5 -70t-38 -104t-12 -127.5v-21zM1568 1387q0 -51 -14 -105.5t-39 -106t-58 -98t-72 -81.5l-127 79q38 65 62.5 140t24.5 172v173h223v-173z" />
<glyph unicode="&#x110;" horiz-adv-x="1259" d="M155 0v643h-182v180h182v633h377q145 0 262.5 -49.5t201 -138t129 -211.5t45.5 -270v-120q0 -147 -45.5 -269.5t-127.5 -211t-197 -137.5t-254 -49h-391zM665 643h-227v-417h108q79 0 141.5 30t106 87t66.5 138.5t23 185.5v122q0 98 -22.5 178.5t-67 138.5t-110 90 t-151.5 32h-94v-405h227v-180z" />
<glyph unicode="&#x111;" horiz-adv-x="1259" d="M1249 1220h-169v-1220h-251l-14 113q-51 -63 -120 -98t-160 -35q-99 0 -177.5 41.5t-133 114.5t-83.5 173.5t-29 218.5v21q0 123 28.5 225t83.5 175t133.5 113t179.5 40q85 0 149.5 -30.5t114.5 -86.5v235h-244v180h244v136h279v-136h169v-180zM390 528 q0 -68 11.5 -126.5t37.5 -102t67 -68.5t100 -25q72 0 119.5 31t75.5 85v438q-28 55 -75 85.5t-118 30.5q-59 0 -100.5 -25.5t-67.5 -70t-38 -104t-12 -127.5v-21z" />
<glyph unicode="&#x112;" d="M1027 638h-598v-411h699v-227h-981v1456h978v-229h-696v-367h598v-222zM1009 1605h-730v164h730v-164z" />
<glyph unicode="&#x113;" d="M666 -20q-125 0 -227 41t-175 111.5t-112.5 166t-39.5 204.5v40q0 124 39 226.5t109 176.5t166 115t209 41q117 0 208.5 -38.5t155 -108.5t96.5 -168.5t33 -217.5v-118h-734q8 -55 32.5 -100.5t62.5 -78.5t87 -51t107 -18q41 0 81.5 8t77.5 23.5t69 38.5t56 54l139 -150 q-26 -37 -67.5 -72.5t-98 -63t-125.5 -44.5t-149 -17zM633 877q-47 0 -86 -16.5t-68.5 -47.5t-49.5 -74t-30 -96h456v22q-2 44 -17 83t-43 67.5t-68.5 45t-93.5 16.5zM969 1293h-730v164h730v-164z" />
<glyph unicode="&#x114;" d="M1027 638h-598v-411h699v-227h-981v1456h978v-229h-696v-367h598v-222zM983 1848q0 -65 -23.5 -119t-68 -92.5t-107.5 -60t-141 -21.5q-79 0 -142 21.5t-107.5 60t-68 92.5t-23.5 119h200q0 -26 7.5 -50.5t24.5 -43t43.5 -29.5t65.5 -11q38 0 64.5 11t43 29.5t24 43 t7.5 50.5h201z" />
<glyph unicode="&#x115;" d="M666 -20q-125 0 -227 41t-175 111.5t-112.5 166t-39.5 204.5v40q0 124 39 226.5t109 176.5t166 115t209 41q117 0 208.5 -38.5t155 -108.5t96.5 -168.5t33 -217.5v-118h-734q8 -55 32.5 -100.5t62.5 -78.5t87 -51t107 -18q41 0 81.5 8t77.5 23.5t69 38.5t56 54l139 -150 q-26 -37 -67.5 -72.5t-98 -63t-125.5 -44.5t-149 -17zM633 877q-47 0 -86 -16.5t-68.5 -47.5t-49.5 -74t-30 -96h456v22q-2 44 -17 83t-43 67.5t-68.5 45t-93.5 16.5zM943 1536q0 -65 -23.5 -119t-68 -92.5t-107.5 -60t-141 -21.5q-79 0 -142 21.5t-107.5 60t-68 92.5 t-23.5 119h200q0 -26 7.5 -50.5t24.5 -43t43.5 -29.5t65.5 -11q38 0 64.5 11t43 29.5t24 43t7.5 50.5h201z" />
<glyph unicode="&#x116;" d="M1027 638h-598v-411h699v-227h-981v1456h978v-229h-696v-367h598v-222zM490 1719q0 61 40 100.5t110 39.5t110 -39.5t40 -100.5q0 -60 -40 -99.5t-110 -39.5t-110 39.5t-40 99.5z" />
<glyph unicode="&#x117;" d="M666 -20q-125 0 -227 41t-175 111.5t-112.5 166t-39.5 204.5v40q0 124 39 226.5t109 176.5t166 115t209 41q117 0 208.5 -38.5t155 -108.5t96.5 -168.5t33 -217.5v-118h-734q8 -55 32.5 -100.5t62.5 -78.5t87 -51t107 -18q41 0 81.5 8t77.5 23.5t69 38.5t56 54l139 -150 q-26 -37 -67.5 -72.5t-98 -63t-125.5 -44.5t-149 -17zM633 877q-47 0 -86 -16.5t-68.5 -47.5t-49.5 -74t-30 -96h456v22q-2 44 -17 83t-43 67.5t-68.5 45t-93.5 16.5zM450 1407q0 61 40 100.5t110 39.5t110 -39.5t40 -100.5q0 -60 -40 -99.5t-110 -39.5t-110 39.5t-40 99.5z " />
<glyph unicode="&#x118;" d="M1027 638h-598v-411h699v-227h-125q-45 -18 -75 -38t-48 -42t-25.5 -46.5t-7.5 -51.5q0 -29 15 -48.5t52 -19.5q29 0 49 7t34 13l47 -154q-28 -15 -72.5 -29.5t-113.5 -14.5q-46 0 -86.5 13.5t-70.5 39.5t-47.5 64.5t-17.5 89.5q0 57 29.5 113t87.5 104h-606v1456h978 v-229h-696v-367h598v-222z" />
<glyph unicode="&#x119;" d="M898 23q-45 -18 -75 -38t-48 -42t-25.5 -46.5t-7.5 -51.5q0 -29 15 -48.5t52 -19.5q29 0 49 7t34 13l47 -154q-28 -15 -72.5 -29.5t-113.5 -14.5q-46 0 -86.5 13.5t-70.5 39.5t-47.5 64.5t-17.5 89.5q0 45 18.5 90t55.5 87q-112 10 -203 54t-155.5 113.5t-99.5 160 t-35 192.5v40q0 124 39 226.5t109 176.5t166 115t209 41q117 0 208.5 -38.5t155 -108.5t96.5 -168.5t33 -217.5v-118h-734q8 -55 32.5 -100.5t62.5 -78.5t87 -51t107 -18q41 0 81.5 8t77.5 23.5t69 38.5t56 54l139 -150q-26 -37 -67.5 -72.5t-98 -63t-125.5 -44.5t-149 -17 q-31 0 -61 3q54 58 140 100zM633 877q-47 0 -86 -16.5t-68.5 -47.5t-49.5 -74t-30 -96h456v22q-2 44 -17 83t-43 67.5t-68.5 45t-93.5 16.5z" />
<glyph unicode="&#x11a;" d="M1027 638h-598v-411h699v-227h-981v1456h978v-229h-696v-367h598v-222zM641 1731l147 126h237v-19l-296 -253h-175l-296 252v20h237z" />
<glyph unicode="&#x11b;" d="M666 -20q-125 0 -227 41t-175 111.5t-112.5 166t-39.5 204.5v40q0 124 39 226.5t109 176.5t166 115t209 41q117 0 208.5 -38.5t155 -108.5t96.5 -168.5t33 -217.5v-118h-734q8 -55 32.5 -100.5t62.5 -78.5t87 -51t107 -18q41 0 81.5 8t77.5 23.5t69 38.5t56 54l139 -150 q-26 -37 -67.5 -72.5t-98 -63t-125.5 -44.5t-149 -17zM633 877q-47 0 -86 -16.5t-68.5 -47.5t-49.5 -74t-30 -96h456v22q-2 44 -17 83t-43 67.5t-68.5 45t-93.5 16.5zM601 1419l147 126h237v-19l-296 -253h-175l-296 252v20h237z" />
<glyph unicode="&#x11c;" d="M1132 170q-27 -33 -74 -67t-111.5 -61.5t-144.5 -44.5t-172 -17q-124 0 -224 44t-171 127t-109.5 203.5t-38.5 273.5v198q0 153 40.5 273.5t112 204.5t168 128t209.5 44q123 0 214.5 -31t154.5 -89.5t98.5 -142.5t46.5 -189h-274q-14 112 -67.5 168.5t-165.5 56.5 q-54 0 -100 -27.5t-80 -80.5t-54 -131.5t-20 -181.5v-200q1 -204 68 -312.5t205 -109.5q33 0 65 5t60 14t49.5 20.5t32.5 24.5l1 264h-241v210h521zM1029 1621v-28h-221l-154 127l-153 -127h-217v30l290 241h161z" />
<glyph unicode="&#x11d;" d="M113 549q0 123 30.5 225t87.5 175t138 113t183 40q95 0 163 -32t116 -91l11 103h253v-1047q0 -110 -37.5 -196t-105 -145t-162 -89.5t-208.5 -30.5q-49 0 -105 10t-111 31t-104 53.5t-84 77.5l125 169q53 -60 120 -91.5t145 -31.5q117 0 182.5 62.5t65.5 177.5v62 q-49 -54 -114.5 -84t-151.5 -30q-101 0 -181.5 41.5t-137.5 114.5t-87.5 173.5t-30.5 218.5v21zM392 528q0 -68 13.5 -126.5t41.5 -102t71 -68.5t102 -25q73 0 120.5 28t75.5 78v458q-28 51 -75.5 78.5t-118.5 27.5q-59 0 -102 -25.5t-71.5 -70t-42.5 -104t-14 -127.5v-21z M974 1300v-28h-221l-154 127l-153 -127h-217v30l290 241h161z" />
<glyph unicode="&#x11e;" d="M1132 170q-27 -33 -74 -67t-111.5 -61.5t-144.5 -44.5t-172 -17q-124 0 -224 44t-171 127t-109.5 203.5t-38.5 273.5v198q0 153 40.5 273.5t112 204.5t168 128t209.5 44q123 0 214.5 -31t154.5 -89.5t98.5 -142.5t46.5 -189h-274q-14 112 -67.5 168.5t-165.5 56.5 q-54 0 -100 -27.5t-80 -80.5t-54 -131.5t-20 -181.5v-200q1 -204 68 -312.5t205 -109.5q33 0 65 5t60 14t49.5 20.5t32.5 24.5l1 264h-241v210h521zM995 1856q0 -65 -23.5 -119t-68 -92.5t-107.5 -60t-141 -21.5q-79 0 -142 21.5t-107.5 60t-68 92.5t-23.5 119h200 q0 -26 7.5 -50.5t24.5 -43t43.5 -29.5t65.5 -11q38 0 64.5 11t43 29.5t24 43t7.5 50.5h201z" />
<glyph unicode="&#x11f;" d="M113 549q0 123 30.5 225t87.5 175t138 113t183 40q95 0 163 -32t116 -91l11 103h253v-1047q0 -110 -37.5 -196t-105 -145t-162 -89.5t-208.5 -30.5q-49 0 -105 10t-111 31t-104 53.5t-84 77.5l125 169q53 -60 120 -91.5t145 -31.5q117 0 182.5 62.5t65.5 177.5v62 q-49 -54 -114.5 -84t-151.5 -30q-101 0 -181.5 41.5t-137.5 114.5t-87.5 173.5t-30.5 218.5v21zM392 528q0 -68 13.5 -126.5t41.5 -102t71 -68.5t102 -25q73 0 120.5 28t75.5 78v458q-28 51 -75.5 78.5t-118.5 27.5q-59 0 -102 -25.5t-71.5 -70t-42.5 -104t-14 -127.5v-21z M941 1535q0 -65 -23.5 -119t-68 -92.5t-107.5 -60t-141 -21.5q-79 0 -142 21.5t-107.5 60t-68 92.5t-23.5 119h200q0 -26 7.5 -50.5t24.5 -43t43.5 -29.5t65.5 -11q38 0 64.5 11t43 29.5t24 43t7.5 50.5h201z" />
<glyph unicode="&#x120;" d="M1132 170q-27 -33 -74 -67t-111.5 -61.5t-144.5 -44.5t-172 -17q-124 0 -224 44t-171 127t-109.5 203.5t-38.5 273.5v198q0 153 40.5 273.5t112 204.5t168 128t209.5 44q123 0 214.5 -31t154.5 -89.5t98.5 -142.5t46.5 -189h-274q-14 112 -67.5 168.5t-165.5 56.5 q-54 0 -100 -27.5t-80 -80.5t-54 -131.5t-20 -181.5v-200q1 -204 68 -312.5t205 -109.5q33 0 65 5t60 14t49.5 20.5t32.5 24.5l1 264h-241v210h521zM502 1727q0 61 40 100.5t110 39.5t110 -39.5t40 -100.5q0 -60 -40 -99.5t-110 -39.5t-110 39.5t-40 99.5z" />
<glyph unicode="&#x121;" d="M113 549q0 123 30.5 225t87.5 175t138 113t183 40q95 0 163 -32t116 -91l11 103h253v-1047q0 -110 -37.5 -196t-105 -145t-162 -89.5t-208.5 -30.5q-49 0 -105 10t-111 31t-104 53.5t-84 77.5l125 169q53 -60 120 -91.5t145 -31.5q117 0 182.5 62.5t65.5 177.5v62 q-49 -54 -114.5 -84t-151.5 -30q-101 0 -181.5 41.5t-137.5 114.5t-87.5 173.5t-30.5 218.5v21zM392 528q0 -68 13.5 -126.5t41.5 -102t71 -68.5t102 -25q73 0 120.5 28t75.5 78v458q-28 51 -75.5 78.5t-118.5 27.5q-59 0 -102 -25.5t-71.5 -70t-42.5 -104t-14 -127.5v-21z M448 1406q0 61 40 100.5t110 39.5t110 -39.5t40 -100.5q0 -60 -40 -99.5t-110 -39.5t-110 39.5t-40 99.5z" />
<glyph unicode="&#x122;" d="M1132 170q-27 -33 -74 -67t-111.5 -61.5t-144.5 -44.5t-172 -17q-124 0 -224 44t-171 127t-109.5 203.5t-38.5 273.5v198q0 153 40.5 273.5t112 204.5t168 128t209.5 44q123 0 214.5 -31t154.5 -89.5t98.5 -142.5t46.5 -189h-274q-14 112 -67.5 168.5t-165.5 56.5 q-54 0 -100 -27.5t-80 -80.5t-54 -131.5t-20 -181.5v-200q1 -204 68 -312.5t205 -109.5q33 0 65 5t60 14t49.5 20.5t32.5 24.5l1 264h-241v210h521zM765 -141q0 -43 -9.5 -90.5t-28 -94t-47 -89t-67.5 -75.5l-113 76q38 63 56.5 128.5t18.5 141.5v72h190v-69z" />
<glyph unicode="&#x123;" d="M113 549q0 123 30.5 225t87.5 175t138 113t183 40q95 0 163 -32t116 -91l11 103h253v-1047q0 -110 -37.5 -196t-105 -145t-162 -89.5t-208.5 -30.5q-49 0 -105 10t-111 31t-104 53.5t-84 77.5l125 169q53 -60 120 -91.5t145 -31.5q117 0 182.5 62.5t65.5 177.5v62 q-49 -54 -114.5 -84t-151.5 -30q-101 0 -181.5 41.5t-137.5 114.5t-87.5 173.5t-30.5 218.5v21zM392 528q0 -68 13.5 -126.5t41.5 -102t71 -68.5t102 -25q73 0 120.5 28t75.5 78v458q-28 51 -75.5 78.5t-118.5 27.5q-59 0 -102 -25.5t-71.5 -70t-42.5 -104t-14 -127.5v-21z M483 1393q0 52 11 101t30.5 91t46 75.5t57.5 54.5l145 -78q-27 -49 -47 -113t-20 -143l-2 -124h-221v136z" />
<glyph unicode="&#x124;" d="M1092 0h-278v631h-412v-631h-279v1456h279v-597h412v597h278v-1456zM981 1613v-28h-221l-154 127l-153 -127h-217v30l290 241h161z" />
<glyph unicode="&#x125;" d="M419 933q54 79 131.5 124t173.5 45q85 0 156 -25.5t122 -79.5t79.5 -138.5t28.5 -203.5v-655h-278v657q0 58 -14.5 100t-41.5 68t-65 38.5t-86 12.5q-70 0 -121.5 -25t-84.5 -70v-781h-278v1536h278v-603zM949 1717v-28h-221l-154 127l-153 -127h-217v30l290 241h161z " />
<glyph unicode="&#x126;" d="M1041 1218h199v-171h-199v-1047h-278v631h-412v-631h-279v1047h-49v171h49v238h279v-238h412v238h278v-238zM351 859h412v188h-412v-188z" />
<glyph unicode="&#x127;" horiz-adv-x="1259" d="M703 1216h-254v-283q54 79 131.5 124t173.5 45q85 0 156 -25.5t122 -79.5t79.5 -138.5t28.5 -203.5v-655h-278v657q0 58 -14.5 100t-41.5 68t-65 38.5t-86 12.5q-70 0 -121.5 -25t-84.5 -70v-781h-278v1216h-160v180h160v140h278v-140h254v-180z" />
<glyph unicode="&#x128;" d="M193 1456h842v-227h-284v-1003h284v-226h-842v226h277v1003h-277v227zM964 1861q0 -45 -15.5 -89t-44 -78.5t-68 -55.5t-88.5 -21q-48 0 -83.5 13.5t-67 30t-62.5 30t-70 13.5q-36 0 -62.5 -26t-26.5 -72l-140 30q0 44 15.5 88t43.5 79t67.5 57t88.5 22q40 0 75 -13.5 t68.5 -30t67.5 -30t72 -13.5q36 0 63 25.5t27 71.5z" />
<glyph unicode="&#x129;" d="M199 1082h605v-856h310v-226h-915v226h324v629h-324v227zM1031 1513q0 -45 -15.5 -89t-44 -78.5t-68 -55.5t-88.5 -21q-48 0 -83.5 13.5t-67 30t-62.5 30t-70 13.5q-36 0 -62.5 -26t-26.5 -72l-140 30q0 44 15.5 88t43.5 79t67.5 57t88.5 22q40 0 75 -13.5t68.5 -30 t67.5 -30t72 -13.5q36 0 63 25.5t27 71.5z" />
<glyph unicode="&#x12a;" d="M193 1456h842v-227h-284v-1003h284v-226h-842v226h277v1003h-277v227zM968 1614h-730v164h730v-164z" />
<glyph unicode="&#x12b;" d="M199 1082h605v-856h310v-226h-915v226h324v629h-324v227zM1034 1267h-730v164h730v-164z" />
<glyph unicode="&#x12c;" d="M193 1456h842v-227h-284v-1003h284v-226h-842v226h277v1003h-277v227zM942 1857q0 -65 -23.5 -119t-68 -92.5t-107.5 -60t-141 -21.5q-79 0 -142 21.5t-107.5 60t-68 92.5t-23.5 119h200q0 -26 7.5 -50.5t24.5 -43t43.5 -29.5t65.5 -11q38 0 64.5 11t43 29.5t24 43 t7.5 50.5h201z" />
<glyph unicode="&#x12d;" d="M199 1082h605v-856h310v-226h-915v226h324v629h-324v227zM1008 1509q0 -65 -23.5 -119t-68 -92.5t-107.5 -60t-141 -21.5q-79 0 -142 21.5t-107.5 60t-68 92.5t-23.5 119h200q0 -26 7.5 -50.5t24.5 -43t43.5 -29.5t65.5 -11q38 0 64.5 11t43 29.5t24 43t7.5 50.5h201z " />
<glyph unicode="&#x12e;" d="M193 1456h842v-227h-284v-1003h284v-226h-258q-45 -18 -75 -38t-48 -42t-25.5 -46.5t-7.5 -51.5q0 -29 15 -48.5t52 -19.5q29 0 49 7t34 13l47 -154q-28 -15 -72.5 -29.5t-113.5 -14.5q-46 0 -86.5 13.5t-70.5 39.5t-47.5 64.5t-17.5 89.5q0 57 29.5 113t87.5 104h-334 v226h277v1003h-277v227z" />
<glyph unicode="&#x12f;" d="M215 1082h589v-856h293v-226h-333q-45 -18 -75 -38t-48 -42t-25.5 -46.5t-7.5 -51.5q0 -29 15 -48.5t52 -19.5q29 0 49 7t34 13l47 -154q-28 -15 -72.5 -29.5t-113.5 -14.5q-46 0 -86.5 13.5t-70.5 39.5t-47.5 64.5t-17.5 89.5q0 57 29.5 113t87.5 104h-299v226h308v629 h-308v227zM503 1359q0 32 11.5 59.5t32.5 47t50.5 30.5t65.5 11q74 0 117.5 -41.5t43.5 -106.5t-43.5 -106.5t-117.5 -41.5q-36 0 -65.5 11t-50.5 30.5t-32.5 47t-11.5 59.5z" />
<glyph unicode="&#x130;" d="M193 1456h842v-227h-284v-1003h284v-226h-842v226h277v1003h-277v227zM449 1728q0 61 40 100.5t110 39.5t110 -39.5t40 -100.5q0 -60 -40 -99.5t-110 -39.5t-110 39.5t-40 99.5z" />
<glyph unicode="&#x131;" d="M199 1082h605v-856h310v-226h-915v226h324v629h-324v227z" />
<glyph unicode="&#x132;" d="M326 0h-200v1456h200v-1456zM902 1456h200v-1134q0 -80 -20.5 -143.5t-63 -107.5t-107 -67t-151.5 -23q-72 0 -133 20.5t-105.5 62.5t-69 106t-24.5 151h200q0 -94 36 -137t96 -43q41 0 68.5 12.5t44 36t23 57t6.5 75.5v1134z" />
<glyph unicode="&#x133;" d="M688 1082h416v-1088q0 -104 -28.5 -184t-83.5 -134t-134 -82t-180 -28q-57 0 -107 3.5t-105 13.5l14 167q17 -3 42.5 -5.5t52.5 -4t51 -2t38 -0.5q50 0 94 12t76.5 41.5t51 78.5t18.5 124v918h-216v170zM81 1082h429v-912h225v-170h-660v170h235v742h-229v170zM297 1360 q0 47 29 79t86 32t86.5 -32t29.5 -79q0 -46 -29.5 -77.5t-86.5 -31.5t-86 31.5t-29 77.5zM880 1361q0 47 29 79t86 32t86.5 -32t29.5 -79q0 -46 -29.5 -77.5t-86.5 -31.5t-86 31.5t-29 77.5z" />
<glyph unicode="&#x134;" d="M818 1456h281l1 -1009q-1 -104 -39.5 -189.5t-105.5 -147.5t-157.5 -96t-194.5 -34q-110 0 -200 28t-154.5 83.5t-100.5 139.5t-37 197h282q1 -117 52 -169.5t158 -52.5q48 0 88 18.5t68 50.5t43.5 76.5t15.5 95.5v1009zM1344 1610v-28h-221l-154 127l-153 -127h-217v30 l290 241h161z" />
<glyph unicode="&#x135;" d="M310 1082h554v-1107q0 -108 -31 -185.5t-89.5 -128t-143.5 -74.5t-194 -24q-45 0 -91 3.5t-89 13.5l14 226q12 -3 33.5 -5.5t44.5 -4t43 -2t31 -0.5q40 0 75 9t61 30t41 55.5t15 86.5v880h-274v227zM1109 1260v-28h-221l-154 127l-153 -127h-217v30l290 241h161z" />
<glyph unicode="&#x136;" d="M565 598l-154 -169v-429h-282v1456h282v-667l132 178l354 489h344l-490 -644l508 -812h-334zM713 -151q0 -43 -9.5 -90.5t-28 -94t-47 -89t-67.5 -75.5l-113 76q38 63 56.5 128.5t18.5 141.5v72h190v-69z" />
<glyph unicode="&#x137;" d="M548 447l-126 -117v-330h-278v1536h278v-878l84 96l299 328h334l-408 -451l465 -631h-341zM691 -150q0 -43 -9.5 -90.5t-28 -94t-47 -89t-67.5 -75.5l-113 76q38 63 56.5 128.5t18.5 141.5v72h190v-69z" />
<glyph unicode="&#x138;" d="M604 427l-167 -141v-286h-278v1082h278v-474l107 127l295 347h349l-386 -448l405 -634h-356z" />
<glyph unicode="&#x139;" d="M432 227h682v-227h-964v1456h282v-1229zM366 1794h306l-277 -279h-216z" />
<glyph unicode="&#x13a;" d="M199 1536h605v-1310h310v-226h-915v226h324v1083h-324v227zM733 1893h306l-277 -279h-216z" />
<glyph unicode="&#x13b;" d="M432 227h682v-227h-964v1456h282v-1229zM718 -128q0 -43 -9.5 -90.5t-28 -94t-47 -89t-67.5 -75.5l-113 76q38 63 56.5 128.5t18.5 141.5v72h190v-69z" />
<glyph unicode="&#x13c;" d="M199 1536h605v-1310h310v-226h-915v226h324v1083h-324v227zM770 -127q0 -43 -9.5 -90.5t-28 -94t-47 -89t-67.5 -75.5l-113 76q38 63 56.5 128.5t18.5 141.5v72h190v-69z" />
<glyph unicode="&#x13d;" d="M432 227h682v-227h-964v1456h282v-1229zM1030 1284q0 -51 -14 -105.5t-39 -106t-58 -98t-72 -81.5l-127 79q38 65 62.5 140t24.5 172v173h223v-173z" />
<glyph unicode="&#x13e;" horiz-adv-x="1379" d="M199 1536h605v-1310h310v-226h-915v226h324v1083h-324v227zM1275 1368q0 -51 -14 -105.5t-39 -106t-58 -98t-72 -81.5l-127 79q38 65 62.5 140t24.5 172v173h223v-173z" />
<glyph unicode="&#x13f;" d="M432 227h682v-227h-964v1456h282v-1229zM614 816q0 61 40 100.5t110 39.5t110 -39.5t40 -100.5q0 -60 -40 -99.5t-110 -39.5t-110 39.5t-40 99.5z" />
<glyph unicode="&#x140;" horiz-adv-x="1449" d="M199 1536h605v-1310h310v-226h-915v226h324v1083h-324v227zM896 812q0 61 40 100.5t110 39.5t110 -39.5t40 -100.5q0 -60 -40 -99.5t-110 -39.5t-110 39.5t-40 99.5z" />
<glyph unicode="&#x141;" d="M461 886l232 68v-195l-232 -68v-464h682v-227h-964v609l-128 -37v195l128 37v652h282v-570z" />
<glyph unicode="&#x142;" d="M818 1019l281 125v-195l-281 -125v-598h310v-226h-915v226h324v474l-312 -138v195l312 138v414h-324v227h605v-517z" />
<glyph unicode="&#x143;" d="M1091 0h-280l-405 939v-939h-283v1456h283l402 -935l1 935h282v-1456zM683 1823h306l-277 -279h-216z" />
<glyph unicode="&#x144;" d="M393 1082l17 -150q58 81 141 125.5t184 44.5q82 0 150 -24t117.5 -76.5t77 -135t27.5 -200.5v-666h-278v662q0 64 -14.5 105.5t-41.5 65.5t-65 33.5t-86 9.5q-71 0 -121 -28.5t-81 -78.5v-769h-279v1082h252zM677 1501h306l-277 -279h-216z" />
<glyph unicode="&#x145;" d="M1091 0h-280l-405 939v-939h-283v1456h283l402 -935l1 935h282v-1456zM718 -135q0 -43 -9.5 -90.5t-28 -94t-47 -89t-67.5 -75.5l-113 76q38 63 56.5 128.5t18.5 141.5v72h190v-69z" />
<glyph unicode="&#x146;" d="M393 1082l17 -150q58 81 141 125.5t184 44.5q82 0 150 -24t117.5 -76.5t77 -135t27.5 -200.5v-666h-278v662q0 64 -14.5 105.5t-41.5 65.5t-65 33.5t-86 9.5q-71 0 -121 -28.5t-81 -78.5v-769h-279v1082h252zM715 -128q0 -43 -9.5 -90.5t-28 -94t-47 -89t-67.5 -75.5 l-113 76q38 63 56.5 128.5t18.5 141.5v72h190v-69z" />
<glyph unicode="&#x147;" d="M1091 0h-280l-405 939v-939h-283v1456h283l402 -935l1 935h282v-1456zM613 1740l147 126h237v-19l-296 -253h-175l-296 252v20h237z" />
<glyph unicode="&#x148;" d="M393 1082l17 -150q58 81 141 125.5t184 44.5q82 0 150 -24t117.5 -76.5t77 -135t27.5 -200.5v-666h-278v662q0 64 -14.5 105.5t-41.5 65.5t-65 33.5t-86 9.5q-71 0 -121 -28.5t-81 -78.5v-769h-279v1082h252zM607 1418l147 126h237v-19l-296 -253h-175l-296 252v20h237z " />
<glyph unicode="&#x149;" d="M393 1082l17 -150q58 81 141 125.5t184 44.5q82 0 150 -24t117.5 -76.5t77 -135t27.5 -200.5v-666h-278v662q0 64 -14.5 105.5t-41.5 65.5t-65 33.5t-86 9.5q-71 0 -121 -28.5t-81 -78.5v-769h-279v1082h252zM156 1384q0 -51 -14 -105.5t-39 -106t-58 -98t-72 -81.5 l-127 79q38 65 62.5 140t24.5 172v173h223v-173z" />
<glyph unicode="&#x14a;" d="M1095 1456v-1495q0 -96 -26 -170.5t-74.5 -125t-118 -76.5t-157.5 -26q-38 0 -70 3.5t-70 13.5l14 222q22 -6 47.5 -8.5t51.5 -2.5q58 0 90 43.5t32 126.5v39l-385 881v-881h-281v1456h281l385 -882v882h281z" />
<glyph unicode="&#x14b;" d="M407 1082l13 -152q53 81 131 126.5t178 45.5q79 0 143.5 -24t110.5 -76.5t71.5 -136t25.5 -202.5v-703q0 -96 -26 -170.5t-74.5 -124.5t-118 -76t-156.5 -26q-37 0 -69.5 3.5t-69.5 13.5l14 224q22 -6 48 -9t52 -3q57 0 88.5 42t31.5 126v702q0 60 -11.5 101t-33 66 t-53.5 36t-74 11q-69 0 -119 -24.5t-82 -67.5v-784h-278v1082h258z" />
<glyph unicode="&#x14c;" d="M1147 621q0 -140 -37 -258t-107 -203t-170.5 -132.5t-226.5 -47.5t-224 47.5t-165 133t-102 203t-35 257.5v212q0 140 35 258t102 203.5t164.5 133.5t223.5 48q127 0 227.5 -48t170.5 -133.5t107 -203.5t37 -258v-212zM862 835q0 89 -14.5 164t-45.5 129t-79.5 84.5 t-117.5 30.5q-68 0 -114 -30.5t-74 -84.5t-40 -129t-12 -164v-214q0 -88 12 -163t40 -130t74 -86t115 -31q68 0 116.5 31t79 85.5t45.5 129.5t15 164v214zM983 1635h-730v164h730v-164z" />
<glyph unicode="&#x14d;" d="M103 551q0 118 34 218.5t99.5 174.5t160 116t216.5 42t217 -42t160.5 -116t99.5 -174.5t34 -218.5v-21q0 -119 -34 -219.5t-99 -174.5t-160 -115.5t-216 -41.5q-122 0 -217.5 41.5t-161 115.5t-99.5 174.5t-34 219.5v21zM381 530q0 -68 13 -127.5t41 -104t72.5 -70.5 t107.5 -26q61 0 105 26t71.5 70.5t40.5 104t13 127.5v21q0 66 -13 125t-40.5 104t-71.5 71t-107 26q-62 0 -106 -26t-72 -71t-41 -104t-13 -125v-21zM988 1292h-730v164h730v-164z" />
<glyph unicode="&#x14e;" d="M1147 621q0 -140 -37 -258t-107 -203t-170.5 -132.5t-226.5 -47.5t-224 47.5t-165 133t-102 203t-35 257.5v212q0 140 35 258t102 203.5t164.5 133.5t223.5 48q127 0 227.5 -48t170.5 -133.5t107 -203.5t37 -258v-212zM862 835q0 89 -14.5 164t-45.5 129t-79.5 84.5 t-117.5 30.5q-68 0 -114 -30.5t-74 -84.5t-40 -129t-12 -164v-214q0 -88 12 -163t40 -130t74 -86t115 -31q68 0 116.5 31t79 85.5t45.5 129.5t15 164v214zM957 1878q0 -65 -23.5 -119t-68 -92.5t-107.5 -60t-141 -21.5q-79 0 -142 21.5t-107.5 60t-68 92.5t-23.5 119h200 q0 -26 7.5 -50.5t24.5 -43t43.5 -29.5t65.5 -11q38 0 64.5 11t43 29.5t24 43t7.5 50.5h201z" />
<glyph unicode="&#x14f;" d="M103 551q0 118 34 218.5t99.5 174.5t160 116t216.5 42t217 -42t160.5 -116t99.5 -174.5t34 -218.5v-21q0 -119 -34 -219.5t-99 -174.5t-160 -115.5t-216 -41.5q-122 0 -217.5 41.5t-161 115.5t-99.5 174.5t-34 219.5v21zM381 530q0 -68 13 -127.5t41 -104t72.5 -70.5 t107.5 -26q61 0 105 26t71.5 70.5t40.5 104t13 127.5v21q0 66 -13 125t-40.5 104t-71.5 71t-107 26q-62 0 -106 -26t-72 -71t-41 -104t-13 -125v-21zM962 1535q0 -65 -23.5 -119t-68 -92.5t-107.5 -60t-141 -21.5q-79 0 -142 21.5t-107.5 60t-68 92.5t-23.5 119h200 q0 -26 7.5 -50.5t24.5 -43t43.5 -29.5t65.5 -11q38 0 64.5 11t43 29.5t24 43t7.5 50.5h201z" />
<glyph unicode="&#x150;" d="M1147 621q0 -140 -37 -258t-107 -203t-170.5 -132.5t-226.5 -47.5t-224 47.5t-165 133t-102 203t-35 257.5v212q0 140 35 258t102 203.5t164.5 133.5t223.5 48q127 0 227.5 -48t170.5 -133.5t107 -203.5t37 -258v-212zM862 835q0 89 -14.5 164t-45.5 129t-79.5 84.5 t-117.5 30.5q-68 0 -114 -30.5t-74 -84.5t-40 -129t-12 -164v-214q0 -88 12 -163t40 -130t74 -86t115 -31q68 0 116.5 31t79 85.5t45.5 129.5t15 164v214zM904 1888h273l-306 -265h-212zM537 1888h261l-258 -265h-206z" />
<glyph unicode="&#x151;" d="M103 551q0 118 34 218.5t99.5 174.5t160 116t216.5 42t217 -42t160.5 -116t99.5 -174.5t34 -218.5v-21q0 -119 -34 -219.5t-99 -174.5t-160 -115.5t-216 -41.5q-122 0 -217.5 41.5t-161 115.5t-99.5 174.5t-34 219.5v21zM381 530q0 -68 13 -127.5t41 -104t72.5 -70.5 t107.5 -26q61 0 105 26t71.5 70.5t40.5 104t13 127.5v21q0 66 -13 125t-40.5 104t-71.5 71t-107 26q-62 0 -106 -26t-72 -71t-41 -104t-13 -125v-21zM909 1545h273l-306 -265h-212zM542 1545h261l-258 -265h-206z" />
<glyph unicode="&#x152;" d="M1190 0h-421q-63 -8 -130 -14.5t-138 -6.5q-93 0 -172 31t-136.5 95t-89.5 161.5t-32 229.5v464q0 132 32 229.5t89 161.5t135.5 95t171.5 31q71 0 139 -6.5t131 -14.5h410v-217h-347v-374h296v-217h-296v-416h358v-232zM501 211q46 0 91 3v1042q-23 2 -46.5 3t-46.5 1 q-44 0 -78.5 -13.5t-58.5 -47.5t-37 -91.5t-13 -145.5v-466q0 -84 13 -139.5t37.5 -87.5t59.5 -45t79 -13z" />
<glyph unicode="&#x153;" d="M38 641q0 108 24 193.5t70.5 145t114.5 91t155 31.5q71 0 128 -22.5t101 -64.5q41 43 95 65.5t121 21.5q80 0 143 -31t106.5 -87t66 -135.5t22.5 -176.5v-218h-420v-34q0 -105 40 -161t128 -56q26 0 46 3t37 8.5t32.5 13t32.5 16.5l60 -180q-37 -35 -96 -59.5t-139 -24.5 q-164 0 -265 95q-44 -47 -103 -71t-134 -24q-88 0 -156 31t-114.5 90t-71 144.5t-24.5 194.5v201zM299 440q0 -116 21.5 -176.5t83.5 -60.5q61 0 82.5 60t21.5 177v201q0 56 -5 100t-17 74t-32.5 46t-51.5 16q-30 0 -49.5 -16t-31.5 -46t-17 -74t-5 -100v-201zM847 877 q-29 0 -45 -15.5t-24.5 -44.5t-10.5 -72t-2 -98h163v85q0 67 -18.5 106t-62.5 39z" />
<glyph unicode="&#x154;" d="M625 544h-213v-544h-281v1456h488q121 0 219 -28.5t167.5 -83.5t107 -137t37.5 -190q0 -78 -18.5 -140.5t-53 -112t-83 -86.5t-108.5 -64l313 -601v-13h-301zM412 772h208q119 0 183.5 60.5t64.5 165.5q0 109 -63 169.5t-186 60.5h-207v-456zM664 1811h306l-277 -279 h-216z" />
<glyph unicode="&#x155;" d="M918 1102q63 0 116.5 -8.5t86.5 -18.5l-41 -277q-55 13 -112.5 19.5t-109.5 6.5q-117 0 -187.5 -45t-105.5 -129v-650h-278v1082h259l13 -177q66 92 158 144.5t201 52.5zM650 1501h306l-277 -279h-216z" />
<glyph unicode="&#x156;" d="M625 544h-213v-544h-281v1456h488q121 0 219 -28.5t167.5 -83.5t107 -137t37.5 -190q0 -78 -18.5 -140.5t-53 -112t-83 -86.5t-108.5 -64l313 -601v-13h-301zM412 772h208q119 0 183.5 60.5t64.5 165.5q0 109 -63 169.5t-186 60.5h-207v-456zM707 -128q0 -43 -9.5 -90.5 t-28 -94t-47 -89t-67.5 -75.5l-113 76q38 63 56.5 128.5t18.5 141.5v72h190v-69z" />
<glyph unicode="&#x157;" d="M918 1102q63 0 116.5 -8.5t86.5 -18.5l-41 -277q-55 13 -112.5 19.5t-109.5 6.5q-117 0 -187.5 -45t-105.5 -129v-650h-278v1082h259l13 -177q66 92 158 144.5t201 52.5zM532 -128q0 -43 -9.5 -90.5t-28 -94t-47 -89t-67.5 -75.5l-113 76q38 63 56.5 128.5t18.5 141.5v72 h190v-69z" />
<glyph unicode="&#x158;" d="M625 544h-213v-544h-281v1456h488q121 0 219 -28.5t167.5 -83.5t107 -137t37.5 -190q0 -78 -18.5 -140.5t-53 -112t-83 -86.5t-108.5 -64l313 -601v-13h-301zM412 772h208q119 0 183.5 60.5t64.5 165.5q0 109 -63 169.5t-186 60.5h-207v-456zM594 1728l147 126h237v-19 l-296 -253h-175l-296 252v20h237z" />
<glyph unicode="&#x159;" d="M918 1102q63 0 116.5 -8.5t86.5 -18.5l-41 -277q-55 13 -112.5 19.5t-109.5 6.5q-117 0 -187.5 -45t-105.5 -129v-650h-278v1082h259l13 -177q66 92 158 144.5t201 52.5zM580 1418l147 126h237v-19l-296 -253h-175l-296 252v20h237z" />
<glyph unicode="&#x15a;" d="M887 380q0 39 -13.5 73t-46 63.5t-85 54t-130.5 45.5q-95 26 -181.5 65t-152.5 94t-105.5 128t-39.5 168q0 92 39 167t108 128t163 81.5t204 28.5q114 0 208.5 -33t162.5 -92.5t106 -141.5t38 -180h-274q-2 49 -17.5 90t-46 70.5t-76 46t-106.5 16.5q-56 0 -99.5 -13.5 t-73.5 -38t-45.5 -58t-15.5 -72.5q0 -41 20.5 -74t59.5 -59.5t94.5 -48.5t125.5 -41q100 -29 184 -71t144.5 -99.5t94 -131t33.5 -163.5q0 -96 -38.5 -170.5t-106.5 -126t-162 -78t-205 -26.5q-69 0 -137.5 12.5t-131 38.5t-116.5 65t-93.5 91t-62 118t-22.5 146h276 q2 -66 23 -113t58.5 -77t90 -44t115.5 -14q56 0 99.5 13t73.5 36t46 55.5t16 71.5zM716 1844h306l-277 -279h-216z" />
<glyph unicode="&#x15b;" d="M839 297q0 25 -11.5 44t-41 35.5t-78.5 30.5t-124 28q-95 19 -173.5 47.5t-134.5 69t-87.5 93.5t-31.5 122q0 67 32 128t92 107t146 73t194 27q113 0 203 -26.5t152.5 -73t95.5 -110.5t33 -139h-278q0 63 -51 105.5t-155 42.5q-97 0 -146.5 -35t-49.5 -86q0 -24 10 -44.5 t35.5 -37t69.5 -30t112 -23.5q98 -16 182 -41t145 -64.5t95.5 -96t34.5 -134.5q0 -72 -34.5 -132.5t-98 -104.5t-153.5 -68.5t-201 -24.5q-122 0 -215.5 32t-156.5 83.5t-95.5 117t-32.5 131.5h265q3 -44 24 -75.5t54 -51t75.5 -28.5t87.5 -9q103 0 157 33t54 85zM661 1501 h306l-277 -279h-216z" />
<glyph unicode="&#x15c;" d="M887 380q0 39 -13.5 73t-46 63.5t-85 54t-130.5 45.5q-95 26 -181.5 65t-152.5 94t-105.5 128t-39.5 168q0 92 39 167t108 128t163 81.5t204 28.5q114 0 208.5 -33t162.5 -92.5t106 -141.5t38 -180h-274q-2 49 -17.5 90t-46 70.5t-76 46t-106.5 16.5q-56 0 -99.5 -13.5 t-73.5 -38t-45.5 -58t-15.5 -72.5q0 -41 20.5 -74t59.5 -59.5t94.5 -48.5t125.5 -41q100 -29 184 -71t144.5 -99.5t94 -131t33.5 -163.5q0 -96 -38.5 -170.5t-106.5 -126t-162 -78t-205 -26.5q-69 0 -137.5 12.5t-131 38.5t-116.5 65t-93.5 91t-62 118t-22.5 146h276 q2 -66 23 -113t58.5 -77t90 -44t115.5 -14q56 0 99.5 13t73.5 36t46 55.5t16 71.5zM1021 1643v-28h-221l-154 127l-153 -127h-217v30l290 241h161z" />
<glyph unicode="&#x15d;" d="M839 297q0 25 -11.5 44t-41 35.5t-78.5 30.5t-124 28q-95 19 -173.5 47.5t-134.5 69t-87.5 93.5t-31.5 122q0 67 32 128t92 107t146 73t194 27q113 0 203 -26.5t152.5 -73t95.5 -110.5t33 -139h-278q0 63 -51 105.5t-155 42.5q-97 0 -146.5 -35t-49.5 -86q0 -24 10 -44.5 t35.5 -37t69.5 -30t112 -23.5q98 -16 182 -41t145 -64.5t95.5 -96t34.5 -134.5q0 -72 -34.5 -132.5t-98 -104.5t-153.5 -68.5t-201 -24.5q-122 0 -215.5 32t-156.5 83.5t-95.5 117t-32.5 131.5h265q3 -44 24 -75.5t54 -51t75.5 -28.5t87.5 -9q103 0 157 33t54 85zM966 1300 v-28h-221l-154 127l-153 -127h-217v30l290 241h161z" />
<glyph unicode="&#x15e;" d="M887 380q0 39 -13.5 73t-46 63.5t-85 54t-130.5 45.5q-95 26 -181.5 65t-152.5 94t-105.5 128t-39.5 168q0 92 39 167t108 128t163 81.5t204 28.5q114 0 208.5 -33t162.5 -92.5t106 -141.5t38 -180h-274q-2 49 -17.5 90t-46 70.5t-76 46t-106.5 16.5q-56 0 -99.5 -13.5 t-73.5 -38t-45.5 -58t-15.5 -72.5q0 -41 20.5 -74t59.5 -59.5t94.5 -48.5t125.5 -41q100 -29 184 -71t144.5 -99.5t94 -131t33.5 -163.5q0 -96 -38.5 -170.5t-106.5 -126t-162 -78t-205 -26.5q-69 0 -137.5 12.5t-131 38.5t-116.5 65t-93.5 91t-62 118t-22.5 146h276 q2 -66 23 -113t58.5 -77t90 -44t115.5 -14q56 0 99.5 13t73.5 36t46 55.5t16 71.5zM762 -4l-11 -56q28 -5 55 -16.5t48 -32t34 -51t13 -73.5q0 -53 -22 -96t-65.5 -73.5t-107.5 -47.5t-149 -17l-7 160q51 0 85 19t34 64q0 42 -34.5 58t-110.5 21l31 141h207z" />
<glyph unicode="&#x15f;" d="M839 297q0 25 -11.5 44t-41 35.5t-78.5 30.5t-124 28q-95 19 -173.5 47.5t-134.5 69t-87.5 93.5t-31.5 122q0 67 32 128t92 107t146 73t194 27q113 0 203 -26.5t152.5 -73t95.5 -110.5t33 -139h-278q0 63 -51 105.5t-155 42.5q-97 0 -146.5 -35t-49.5 -86q0 -24 10 -44.5 t35.5 -37t69.5 -30t112 -23.5q98 -16 182 -41t145 -64.5t95.5 -96t34.5 -134.5q0 -72 -34.5 -132.5t-98 -104.5t-153.5 -68.5t-201 -24.5q-122 0 -215.5 32t-156.5 83.5t-95.5 117t-32.5 131.5h265q3 -44 24 -75.5t54 -51t75.5 -28.5t87.5 -9q103 0 157 33t54 85zM698 -4 l-11 -56q28 -5 55 -16.5t48 -32t34 -51t13 -73.5q0 -53 -22 -96t-65.5 -73.5t-107.5 -47.5t-149 -17l-7 160q51 0 85 19t34 64q0 42 -34.5 58t-110.5 21l31 141h207z" />
<glyph unicode="&#x160;" d="M887 380q0 39 -13.5 73t-46 63.5t-85 54t-130.5 45.5q-95 26 -181.5 65t-152.5 94t-105.5 128t-39.5 168q0 92 39 167t108 128t163 81.5t204 28.5q114 0 208.5 -33t162.5 -92.5t106 -141.5t38 -180h-274q-2 49 -17.5 90t-46 70.5t-76 46t-106.5 16.5q-56 0 -99.5 -13.5 t-73.5 -38t-45.5 -58t-15.5 -72.5q0 -41 20.5 -74t59.5 -59.5t94.5 -48.5t125.5 -41q100 -29 184 -71t144.5 -99.5t94 -131t33.5 -163.5q0 -96 -38.5 -170.5t-106.5 -126t-162 -78t-205 -26.5q-69 0 -137.5 12.5t-131 38.5t-116.5 65t-93.5 91t-62 118t-22.5 146h276 q2 -66 23 -113t58.5 -77t90 -44t115.5 -14q56 0 99.5 13t73.5 36t46 55.5t16 71.5zM645 1761l147 126h237v-19l-296 -253h-175l-296 252v20h237z" />
<glyph unicode="&#x161;" d="M839 297q0 25 -11.5 44t-41 35.5t-78.5 30.5t-124 28q-95 19 -173.5 47.5t-134.5 69t-87.5 93.5t-31.5 122q0 67 32 128t92 107t146 73t194 27q113 0 203 -26.5t152.5 -73t95.5 -110.5t33 -139h-278q0 63 -51 105.5t-155 42.5q-97 0 -146.5 -35t-49.5 -86q0 -24 10 -44.5 t35.5 -37t69.5 -30t112 -23.5q98 -16 182 -41t145 -64.5t95.5 -96t34.5 -134.5q0 -72 -34.5 -132.5t-98 -104.5t-153.5 -68.5t-201 -24.5q-122 0 -215.5 32t-156.5 83.5t-95.5 117t-32.5 131.5h265q3 -44 24 -75.5t54 -51t75.5 -28.5t87.5 -9q103 0 157 33t54 85zM591 1418 l147 126h237v-19l-296 -253h-175l-296 252v20h237z" />
<glyph unicode="&#x162;" d="M1201 1227h-449v-1227h-282v1227h-443v229h1174v-229zM718 18l-11 -56q28 -5 55 -16.5t48 -32t34 -51t13 -73.5q0 -53 -22 -96t-65.5 -73.5t-107.5 -47.5t-149 -17l-7 160q51 0 85 19t34 64q0 42 -34.5 58t-110.5 21l31 141h207z" />
<glyph unicode="&#x163;" d="M651 1347v-265h404v-205h-404v-465q0 -59 13.5 -98.5t38.5 -63t60.5 -33.5t79.5 -10q32 0 65.5 3t64 7.5t57 9.5t45.5 10l27 -191q-29 -17 -68 -29.5t-83 -20.5t-91.5 -12.5t-93.5 -4.5q-89 0 -161.5 23.5t-124 73t-79.5 126t-28 183.5v492h-247v205h247v265h278zM784 5 l-11 -56q28 -5 55 -16.5t48 -32t34 -51t13 -73.5q0 -53 -22 -96t-65.5 -73.5t-107.5 -47.5t-149 -17l-7 160q51 0 85 19t34 64q0 42 -34.5 58t-110.5 21l31 141h207z" />
<glyph unicode="&#x164;" d="M1201 1227h-449v-1227h-282v1227h-443v229h1174v-229zM614 1737l147 126h237v-19l-296 -253h-175l-296 252v20h237z" />
<glyph unicode="&#x165;" horiz-adv-x="1269" d="M651 1347v-265h404v-205h-404v-465q0 -59 13.5 -98.5t38.5 -63t60.5 -33.5t79.5 -10q32 0 65.5 3t64 7.5t57 9.5t45.5 10l27 -191q-29 -17 -68 -29.5t-83 -20.5t-91.5 -12.5t-93.5 -4.5q-89 0 -161.5 23.5t-124 73t-79.5 126t-28 183.5v492h-247v205h247v265h278z M1230 1550q0 -51 -14 -105.5t-39 -106t-58 -98t-72 -81.5l-127 79q38 65 62.5 140t24.5 172v173h223v-173z" />
<glyph unicode="&#x166;" d="M933 757h-181v-757h-282v757h-229v180h229v290h-443v229h1174v-229h-449v-290h181v-180z" />
<glyph unicode="&#x167;" d="M651 1347v-265h404v-205h-404v-158h219v-180h-219v-127q0 -59 13.5 -98.5t38.5 -63t60.5 -33.5t79.5 -10q32 0 65.5 3t64 7.5t57 9.5t45.5 10l27 -191q-29 -17 -68 -29.5t-83 -20.5t-91.5 -12.5t-93.5 -4.5q-89 0 -161.5 23.5t-124 73t-79.5 126t-28 183.5v154h-195v180 h195v158h-247v205h247v265h278z" />
<glyph unicode="&#x168;" d="M1101 1456l1 -965q0 -122 -33.5 -217t-97 -160.5t-155 -99.5t-208.5 -34q-110 0 -198.5 34t-151.5 99t-97.5 160.5t-34.5 217.5l1 965h281l1 -965q1 -141 51.5 -213t147.5 -72q103 0 157.5 72t55.5 213l1 965h279zM987 1858q0 -45 -15.5 -89t-44 -78.5t-68 -55.5 t-88.5 -21q-48 0 -83.5 13.5t-67 30t-62.5 30t-70 13.5q-36 0 -62.5 -26t-26.5 -72l-140 30q0 44 15.5 88t43.5 79t67.5 57t88.5 22q40 0 75 -13.5t68.5 -30t67.5 -30t72 -13.5q36 0 63 25.5t27 71.5z" />
<glyph unicode="&#x169;" d="M831 152q-55 -81 -132.5 -127t-169.5 -46q-84 0 -154 26t-120 82.5t-77.5 144t-27.5 210.5v640h278v-642q0 -66 9.5 -111t30.5 -72.5t55 -39.5t83 -12q83 0 135 31.5t79 86.5v759h279v-1082h-252zM986 1518q0 -45 -15.5 -89t-44 -78.5t-68 -55.5t-88.5 -21 q-48 0 -83.5 13.5t-67 30t-62.5 30t-70 13.5q-36 0 -62.5 -26t-26.5 -72l-140 30q0 44 15.5 88t43.5 79t67.5 57t88.5 22q40 0 75 -13.5t68.5 -30t67.5 -30t72 -13.5q36 0 63 25.5t27 71.5z" />
<glyph unicode="&#x16a;" d="M1101 1456l1 -965q0 -122 -33.5 -217t-97 -160.5t-155 -99.5t-208.5 -34q-110 0 -198.5 34t-151.5 99t-97.5 160.5t-34.5 217.5l1 965h281l1 -965q1 -141 51.5 -213t147.5 -72q103 0 157.5 72t55.5 213l1 965h279zM991 1611h-730v164h730v-164z" />
<glyph unicode="&#x16b;" d="M831 152q-55 -81 -132.5 -127t-169.5 -46q-84 0 -154 26t-120 82.5t-77.5 144t-27.5 210.5v640h278v-642q0 -66 9.5 -111t30.5 -72.5t55 -39.5t83 -12q83 0 135 31.5t79 86.5v759h279v-1082h-252zM990 1272h-730v164h730v-164z" />
<glyph unicode="&#x16c;" d="M1101 1456l1 -965q0 -122 -33.5 -217t-97 -160.5t-155 -99.5t-208.5 -34q-110 0 -198.5 34t-151.5 99t-97.5 160.5t-34.5 217.5l1 965h281l1 -965q1 -141 51.5 -213t147.5 -72q103 0 157.5 72t55.5 213l1 965h279zM965 1854q0 -65 -23.5 -119t-68 -92.5t-107.5 -60 t-141 -21.5q-79 0 -142 21.5t-107.5 60t-68 92.5t-23.5 119h200q0 -26 7.5 -50.5t24.5 -43t43.5 -29.5t65.5 -11q38 0 64.5 11t43 29.5t24 43t7.5 50.5h201z" />
<glyph unicode="&#x16d;" d="M831 152q-55 -81 -132.5 -127t-169.5 -46q-84 0 -154 26t-120 82.5t-77.5 144t-27.5 210.5v640h278v-642q0 -66 9.5 -111t30.5 -72.5t55 -39.5t83 -12q83 0 135 31.5t79 86.5v759h279v-1082h-252zM964 1514q0 -65 -23.5 -119t-68 -92.5t-107.5 -60t-141 -21.5 q-79 0 -142 21.5t-107.5 60t-68 92.5t-23.5 119h200q0 -26 7.5 -50.5t24.5 -43t43.5 -29.5t65.5 -11q38 0 64.5 11t43 29.5t24 43t7.5 50.5h201z" />
<glyph unicode="&#x16e;" d="M1101 1456l1 -965q0 -122 -33.5 -217t-97 -160.5t-155 -99.5t-208.5 -34q-110 0 -198.5 34t-151.5 99t-97.5 160.5t-34.5 217.5l1 965h281l1 -965q1 -141 51.5 -213t147.5 -72q103 0 157.5 72t55.5 213l1 965h279zM411 1729q0 42 16.5 78t45.5 62t68 41t83 15t82 -15 t66 -41t44 -62t16 -78t-16 -77.5t-44 -61t-66 -39.5t-82 -14t-83 14t-68 39.5t-45.5 61t-16.5 77.5zM525 1729q0 -44 28.5 -71t70.5 -27t68.5 27t26.5 71q0 45 -26.5 72.5t-68.5 27.5t-70.5 -27.5t-28.5 -72.5z" />
<glyph unicode="&#x16f;" d="M831 152q-55 -81 -132.5 -127t-169.5 -46q-84 0 -154 26t-120 82.5t-77.5 144t-27.5 210.5v640h278v-642q0 -66 9.5 -111t30.5 -72.5t55 -39.5t83 -12q83 0 135 31.5t79 86.5v759h279v-1082h-252zM410 1389q0 42 16.5 78t45.5 62t68 41t83 15t82 -15t66 -41t44 -62 t16 -78t-16 -77.5t-44 -61t-66 -39.5t-82 -14t-83 14t-68 39.5t-45.5 61t-16.5 77.5zM524 1389q0 -44 28.5 -71t70.5 -27t68.5 27t26.5 71q0 45 -26.5 72.5t-68.5 27.5t-70.5 -27.5t-28.5 -72.5z" />
<glyph unicode="&#x170;" d="M1101 1456l1 -965q0 -122 -33.5 -217t-97 -160.5t-155 -99.5t-208.5 -34q-110 0 -198.5 34t-151.5 99t-97.5 160.5t-34.5 217.5l1 965h281l1 -965q1 -141 51.5 -213t147.5 -72q103 0 157.5 72t55.5 213l1 965h279zM912 1864h273l-306 -265h-212zM545 1864h261l-258 -265 h-206z" />
<glyph unicode="&#x171;" d="M831 152q-55 -81 -132.5 -127t-169.5 -46q-84 0 -154 26t-120 82.5t-77.5 144t-27.5 210.5v640h278v-642q0 -66 9.5 -111t30.5 -72.5t55 -39.5t83 -12q83 0 135 31.5t79 86.5v759h279v-1082h-252zM911 1524h273l-306 -265h-212zM544 1524h261l-258 -265h-206z" />
<glyph unicode="&#x172;" d="M1101 1456l1 -965q-1 -181 -72 -301t-205 -173q-38 -28 -53 -60t-15 -70q0 -29 15 -48.5t52 -19.5q29 0 49 7t34 13l47 -154q-28 -15 -72.5 -29.5t-113.5 -14.5q-46 0 -86.5 13.5t-70.5 39.5t-47.5 64.5t-17.5 89.5q0 68 41 133q-105 3 -190 38.5t-145 100.5t-93 158.5 t-33 212.5l1 965h281l1 -965q1 -141 51.5 -213t147.5 -72q103 0 157.5 72t55.5 213l1 965h279z" />
<glyph unicode="&#x173;" d="M1080 0q-45 -18 -75 -38t-48 -42t-25.5 -46.5t-7.5 -51.5q0 -29 15 -48.5t52 -19.5q29 0 49 7t34 13l47 -154q-28 -15 -72.5 -29.5t-113.5 -14.5q-46 0 -86.5 13.5t-70.5 39.5t-47.5 64.5t-17.5 89.5q0 60 33.5 120.5t99.5 108.5l-15 140q-55 -81 -132.5 -127t-169.5 -46 q-84 0 -154 26t-120 82.5t-77.5 144t-27.5 210.5v640h278v-642q0 -66 9.5 -111t30.5 -72.5t55 -39.5t83 -12q83 0 135 31.5t79 86.5v759h279v-1082h-19z" />
<glyph unicode="&#x174;" d="M843 579l106 877h258l-202 -1456h-254l-138 860l-133 -860h-254l-200 1456h257l104 -871l124 871h201zM983 1622v-28h-221l-154 127l-153 -127h-217v30l290 241h161z" />
<glyph unicode="&#x175;" d="M833 339l94 743h255l-194 -1082h-244l-142 688l-137 -688h-244l-194 1082h254l94 -746l136 746h186zM978 1279v-28h-221l-154 127l-153 -127h-217v30l290 241h161z" />
<glyph unicode="&#x176;" d="M628 785l287 671h309l-458 -952l-1 -504h-280l-1 516l-451 940h308zM1002 1622v-28h-221l-154 127l-153 -127h-217v30l290 241h161z" />
<glyph unicode="&#x177;" d="M602 454l32 -116l288 744h307l-549 -1244q-18 -41 -46.5 -89t-71.5 -89t-104.5 -69t-145.5 -28q-20 0 -37 1.5t-33 4t-31.5 6t-33.5 8.5l34 212q17 0 43.5 -1.5t42.5 -1.5q33 0 58.5 20t43.5 44t29 44t15 20l67 126l-458 1036h304zM1021 1279v-28h-221l-154 127 l-153 -127h-217v30l290 241h161z" />
<glyph unicode="&#x178;" d="M628 785l287 671h309l-458 -952l-1 -504h-280l-1 516l-451 940h308zM246 1714q0 26 10 49t28 40t43 26.5t55 9.5t55 -9.5t43 -26.5t28 -40t10 -49t-10 -49t-28 -39.5t-43 -26t-55 -9.5t-55 9.5t-43 26t-28 39.5t-10 49zM726 1714q0 26 10 49t28 39.5t43 26t55 9.5 t55 -9.5t43 -26t28 -39.5t10 -49q0 -27 -10 -50t-28 -40t-43 -26.5t-55 -9.5t-55 9.5t-43 26.5t-28 40t-10 50z" />
<glyph unicode="&#x179;" d="M431 227h722v-227h-1064v172l706 1055h-704v229h1044l1 -167zM699 1820h306l-277 -279h-216z" />
<glyph unicode="&#x17a;" d="M498 223h637v-223h-1017v172l606 684h-592v226h978v-167zM727 1480h306l-277 -279h-216z" />
<glyph unicode="&#x17b;" d="M431 227h722v-227h-1064v172l706 1055h-704v229h1044l1 -167zM477 1725q0 61 40 100.5t110 39.5t110 -39.5t40 -100.5q0 -60 -40 -99.5t-110 -39.5t-110 39.5t-40 99.5z" />
<glyph unicode="&#x17c;" d="M498 223h637v-223h-1017v172l606 684h-592v226h978v-167zM505 1385q0 61 40 100.5t110 39.5t110 -39.5t40 -100.5q0 -60 -40 -99.5t-110 -39.5t-110 39.5t-40 99.5z" />
<glyph unicode="&#x17d;" d="M431 227h722v-227h-1064v172l706 1055h-704v229h1044l1 -167zM629 1737l147 126h237v-19l-296 -253h-175l-296 252v20h237z" />
<glyph unicode="&#x17e;" d="M498 223h637v-223h-1017v172l606 684h-592v226h978v-167zM656 1397l147 126h237v-19l-296 -253h-175l-296 252v20h237z" />
<glyph unicode="&#x17f;" d="M412 0v1101q0 117 34 206.5t97.5 150t154.5 92t205 31.5q41 0 79.5 -6t78.5 -15l-24 -215q-21 5 -42.5 8t-53.5 3q-123 0 -187.5 -68t-64.5 -187v-1101h-277z" />
<glyph unicode="&#x192;" d="M945 877h-206v-890q0 -103 -27.5 -182t-79 -133t-126 -81.5t-168.5 -27.5q-48 0 -95 8t-95 29l15 221q10 -8 29.5 -14t40.5 -10t41 -6.5t32 -2.5q82 0 118 51.5t36 147.5v890h-161v205h161v79q0 102 32.5 180.5t93.5 131.5t148.5 80.5t198.5 27.5q51 0 98.5 -12t98.5 -29 l-24 -216q-28 14 -61.5 22t-77.5 8q-115 0 -171.5 -49.5t-56.5 -143.5v-79h206v-205z" />
<glyph unicode="&#x1a0;" d="M1160 621q0 -140 -37 -258t-107 -203t-170.5 -132.5t-226.5 -47.5t-224 47.5t-165 133t-102 203t-35 257.5v212q0 140 35 258t102 203.5t164.5 133.5t223.5 48q122 0 219 -44t167 -124q26 27 38 76.5t12 118.5h194q0 -125 -39 -210.5t-114 -128.5q65 -144 65 -331v-212z M875 835q0 89 -14.5 164t-45.5 129t-79.5 84.5t-117.5 30.5q-68 0 -114 -30.5t-74 -84.5t-40 -129t-12 -164v-214q0 -88 12 -163t40 -130t74 -86t115 -31q68 0 116.5 31t79 85.5t45.5 129.5t15 164v214z" />
<glyph unicode="&#x1a1;" d="M95 551q0 118 34 218.5t99.5 174.5t160 116t216.5 42q103 0 186 -29.5t146 -83.5q60 58 60 190h193q0 -113 -39 -193t-110 -125q37 -66 56 -144t19 -166v-21q0 -119 -34 -219.5t-99 -174.5t-160 -115.5t-216 -41.5q-122 0 -217.5 41.5t-161 115.5t-99.5 174.5t-34 219.5 v21zM373 530q0 -68 13 -127.5t41 -104t72.5 -70.5t107.5 -26q61 0 105 26t71.5 70.5t40.5 104t13 127.5v21q0 66 -13 125t-40.5 104t-71.5 71t-107 26q-62 0 -106 -26t-72 -71t-41 -104t-13 -125v-21z" />
<glyph unicode="&#x1af;" d="M1108 1456v-196q52 3 83 20t47 47.5t20.5 76t4.5 105.5h200q0 -99 -19.5 -173.5t-62 -125t-110 -77.5t-163.5 -30l1 -612q0 -122 -33.5 -217t-97 -160.5t-155 -99.5t-208.5 -34q-110 0 -198.5 34t-151.5 99t-97.5 160.5t-34.5 217.5l1 965h281l1 -965q1 -141 51.5 -213 t147.5 -72q103 0 157.5 72t55.5 213l1 965h279z" />
<glyph unicode="&#x1b0;" d="M1375 1178q0 -184 -76 -284t-232 -126v-768h-252l-16 152q-55 -81 -132.5 -127t-169.5 -46q-84 0 -154 26t-120 82.5t-77.5 144t-27.5 210.5v640h278v-642q0 -66 9.5 -111t30.5 -72.5t55 -39.5t83 -12q83 0 135 31.5t79 86.5v759h279v-145q60 26 85 85t25 156h198z" />
<glyph unicode="&#x1f0;" d="M310 1082h554v-1107q0 -108 -31 -185.5t-89.5 -128t-143.5 -74.5t-194 -24q-45 0 -91 3.5t-89 13.5l14 226q12 -3 33.5 -5.5t44.5 -4t43 -2t31 -0.5q40 0 75 9t61 30t41 55.5t15 86.5v880h-274v227zM733 1378l147 126h237v-19l-296 -253h-175l-296 252v20h237z" />
<glyph unicode="&#x1fa;" d="M847 304h-437l-86 -304h-296l477 1456h255l468 -1456h-296zM479 543h302l-149 536zM744 2134h263l-263 -204h-182zM435 1705q0 39 15.5 73t42.5 58.5t63.5 38.5t77.5 14t76.5 -14t62 -38.5t41.5 -58.5t15 -73q0 -40 -15 -73.5t-41.5 -57.5t-62 -37t-76.5 -13t-77.5 13.5 t-63.5 37.5t-42.5 57t-15.5 73zM545 1705q0 -38 25.5 -63t63.5 -25t61.5 25t23.5 63q0 40 -23.5 65t-61.5 25t-63.5 -25t-25.5 -65z" />
<glyph unicode="&#x1fb;" d="M817 0q-10 20 -17 46t-12 55q-23 -25 -53 -47t-66.5 -38.5t-80.5 -26t-95 -9.5q-83 0 -152.5 24t-119.5 67t-78 102.5t-28 129.5q0 171 127.5 264.5t380.5 93.5h155v64q0 78 -51 123.5t-147 45.5q-85 0 -124 -36.5t-39 -97.5h-278q0 69 30.5 131t89 109t143 74.5 t193.5 27.5q98 0 182.5 -24t146.5 -71t97 -118.5t35 -165.5v-464q0 -87 11 -144t32 -98v-17h-282zM552 195q42 0 78 10t65 26t50 36.5t33 41.5v186h-142q-65 0 -111 -12.5t-75 -35t-43 -54t-14 -68.5q0 -56 39.5 -93t119.5 -37zM707 1812h263l-263 -204h-182zM398 1383 q0 39 15.5 73t42.5 58.5t63.5 38.5t77.5 14t76.5 -14t62 -38.5t41.5 -58.5t15 -73q0 -40 -15 -73.5t-41.5 -57.5t-62 -37t-76.5 -13t-77.5 13.5t-63.5 37.5t-42.5 57t-15.5 73zM508 1383q0 -38 25.5 -63t63.5 -25t61.5 25t23.5 63q0 40 -23.5 65t-61.5 25t-63.5 -25 t-25.5 -65z" />
<glyph unicode="&#x1fc;" d="M1177 0h-536v334h-217l-94 -334h-282l479 1456h629v-228h-248v-366h217v-227h-217v-409h269v-226zM641 574v532l-150 -532h150zM799 1823h306l-277 -279h-216z" />
<glyph unicode="&#x1fd;" d="M868 -20q-90 0 -157.5 31t-112.5 88q-18 -24 -41.5 -46t-53 -38t-64 -25.5t-75.5 -9.5q-77 0 -136 22.5t-99.5 63.5t-61.5 100t-21 131q0 169 114 260t337 91h3v119q0 53 -18.5 81.5t-59.5 28.5q-47 0 -69.5 -23.5t-22.5 -77.5l-261 9q0 72 23.5 131t67.5 100t106.5 63.5 t141.5 22.5q145 0 232 -75q42 36 98.5 56t128.5 19q74 0 134.5 -28t103 -80t66 -127t23.5 -168v-245h-451v-91q0 -36 9 -65.5t30 -50.5t54 -32.5t81 -11.5q34 0 61 4.5t49.5 11t42.5 15.5t41 18l55 -192q-20 -16 -50.5 -30.5t-69 -25.5t-83.5 -17.5t-95 -6.5zM743 643h195 v112q0 57 -21.5 89.5t-69.5 32.5q-34 0 -54.5 -13t-31.5 -36t-14.5 -55t-3.5 -69v-61zM434 185q17 0 34 7t32 19v253h-1q-43 0 -75.5 -14t-55 -37.5t-34 -54.5t-11.5 -65q0 -49 27.5 -78.5t83.5 -29.5zM726 1502h306l-277 -279h-216z" />
<glyph unicode="&#x1fe;" d="M1152 621q0 -140 -37 -258t-107 -203t-170.5 -132.5t-226.5 -47.5q-86 0 -158 21.5t-131 63.5l-91 -160h-183l157 278q-60 85 -90 195.5t-30 242.5v212q0 140 35 258t102 203.5t164.5 133.5t223.5 48q81 0 151.5 -20t129.5 -58l68 120h184l-130 -230q68 -86 103.5 -201.5 t35.5 -253.5v-212zM867 835q-1 45 -4.5 87t-11.5 80l-404 -715q29 -36 69 -56t95 -20q68 0 116.5 31t79 85.5t45.5 129.5t15 164v214zM370 621q0 -35 2 -68t6 -64l390 691q-30 30 -69 46.5t-89 16.5q-68 0 -114 -30.5t-74 -84.5t-40 -129t-12 -164v-214zM685 1885h306 l-277 -279h-216z" />
<glyph unicode="&#x1ff;" d="M103 551q0 118 34 218.5t99.5 174.5t160 116t216.5 42q104 0 191 -32l71 145h157l-104 -213q96 -74 146 -190.5t50 -260.5v-21q0 -119 -34 -219.5t-99 -174.5t-160 -115.5t-216 -41.5q-94 0 -175 26l-71 -146h-157l102 208q-103 72 -157 192.5t-54 270.5v21zM381 530 q0 -66 11.5 -123.5t37.5 -101.5l271 555q-39 17 -88 17q-62 0 -106 -26t-72 -71t-41 -104t-13 -125v-21zM845 551q0 57 -9.5 108.5t-29.5 93.5l-264 -540q35 -11 73 -11q61 0 105 26t71.5 70.5t40.5 104t13 127.5v21zM648 1497h306l-277 -279h-216z" />
<glyph unicode="&#x218;" d="M887 380q0 39 -13.5 73t-46 63.5t-85 54t-130.5 45.5q-95 26 -181.5 65t-152.5 94t-105.5 128t-39.5 168q0 92 39 167t108 128t163 81.5t204 28.5q114 0 208.5 -33t162.5 -92.5t106 -141.5t38 -180h-274q-2 49 -17.5 90t-46 70.5t-76 46t-106.5 16.5q-56 0 -99.5 -13.5 t-73.5 -38t-45.5 -58t-15.5 -72.5q0 -41 20.5 -74t59.5 -59.5t94.5 -48.5t125.5 -41q100 -29 184 -71t144.5 -99.5t94 -131t33.5 -163.5q0 -96 -38.5 -170.5t-106.5 -126t-162 -78t-205 -26.5q-69 0 -137.5 12.5t-131 38.5t-116.5 65t-93.5 91t-62 118t-22.5 146h276 q2 -66 23 -113t58.5 -77t90 -44t115.5 -14q56 0 99.5 13t73.5 36t46 55.5t16 71.5zM756 -148q0 -43 -9.5 -90.5t-28 -94t-47 -89t-67.5 -75.5l-113 76q38 63 56.5 128.5t18.5 141.5v72h190v-69z" />
<glyph unicode="&#x219;" d="M839 297q0 25 -11.5 44t-41 35.5t-78.5 30.5t-124 28q-95 19 -173.5 47.5t-134.5 69t-87.5 93.5t-31.5 122q0 67 32 128t92 107t146 73t194 27q113 0 203 -26.5t152.5 -73t95.5 -110.5t33 -139h-278q0 63 -51 105.5t-155 42.5q-97 0 -146.5 -35t-49.5 -86q0 -24 10 -44.5 t35.5 -37t69.5 -30t112 -23.5q98 -16 182 -41t145 -64.5t95.5 -96t34.5 -134.5q0 -72 -34.5 -132.5t-98 -104.5t-153.5 -68.5t-201 -24.5q-122 0 -215.5 32t-156.5 83.5t-95.5 117t-32.5 131.5h265q3 -44 24 -75.5t54 -51t75.5 -28.5t87.5 -9q103 0 157 33t54 85zM692 -148 q0 -43 -9.5 -90.5t-28 -94t-47 -89t-67.5 -75.5l-113 76q38 63 56.5 128.5t18.5 141.5v72h190v-69z" />
<glyph unicode="&#x21a;" d="M1201 1227h-449v-1227h-282v1227h-443v229h1174v-229zM712 -125q0 -43 -9.5 -90.5t-28 -94t-47 -89t-67.5 -75.5l-113 76q38 63 56.5 128.5t18.5 141.5v72h190v-69z" />
<glyph unicode="&#x21b;" d="M651 1347v-265h404v-205h-404v-465q0 -59 13.5 -98.5t38.5 -63t60.5 -33.5t79.5 -10q32 0 65.5 3t64 7.5t57 9.5t45.5 10l27 -191q-29 -17 -68 -29.5t-83 -20.5t-91.5 -12.5t-93.5 -4.5q-89 0 -161.5 23.5t-124 73t-79.5 126t-28 183.5v492h-247v205h247v265h278z M778 -138q0 -43 -9.5 -90.5t-28 -94t-47 -89t-67.5 -75.5l-113 76q38 63 56.5 128.5t18.5 141.5v72h190v-69z" />
<glyph unicode="&#x237;" d="M310 1082h554v-1107q0 -108 -31 -185.5t-89.5 -128t-143.5 -74.5t-194 -24q-45 0 -91 3.5t-89 13.5l14 226q12 -3 33.5 -5.5t44.5 -4t43 -2t31 -0.5q40 0 75 9t61 30t41 55.5t15 86.5v880h-274v227z" />
<glyph unicode="&#x259;" d="M608 1103q123 0 221.5 -41t167 -112.5t105.5 -168.5t37 -210v-40q0 -119 -36 -220t-102 -174.5t-159 -115t-207 -40.5q-117 0 -206.5 35t-150 98.5t-91.5 153.5t-31 201v158h701q-7 52 -27 98t-54.5 80.5t-83 54t-111.5 19.5q-57 0 -102.5 -6.5t-83.5 -17.5t-71 -26 t-64 -32l-79 180q30 24 72 46.5t96 40t119 28.5t140 11zM635 204q46 0 83 17.5t64 48t44.5 72.5t26.5 92h-424v-25q0 -45 12 -82.5t37 -64.5t64 -42.5t93 -15.5z" />
<glyph unicode="&#x2bc;" d="M776 1387q0 -51 -14 -105.5t-39 -106t-58 -98t-72 -81.5l-127 79q38 65 62.5 140t24.5 172v173h223v-173z" />
<glyph unicode="&#x2c6;" d="M874 1273v-28h-221l-154 127l-153 -127h-217v30l290 241h161z" />
<glyph unicode="&#x2c7;" d="M632 1391l147 126h237v-19l-296 -253h-175l-296 252v20h237z" />
<glyph unicode="&#x2d8;" d="M974 1442q0 -65 -23.5 -119t-68 -92.5t-107.5 -60t-141 -21.5q-79 0 -142 21.5t-107.5 60t-68 92.5t-23.5 119h200q0 -26 7.5 -50.5t24.5 -43t43.5 -29.5t65.5 -11q38 0 64.5 11t43 29.5t24 43t7.5 50.5h201z" />
<glyph unicode="&#x2d9;" d="M472 1363q0 61 40 100.5t110 39.5t110 -39.5t40 -100.5q0 -60 -40 -99.5t-110 -39.5t-110 39.5t-40 99.5z" />
<glyph unicode="&#x2da;" d="M403 1231q0 42 16.5 78t45.5 62t68 41t83 15t82 -15t66 -41t44 -62t16 -78t-16 -77.5t-44 -61t-66 -39.5t-82 -14t-83 14t-68 39.5t-45.5 61t-16.5 77.5zM517 1231q0 -44 28.5 -71t70.5 -27t68.5 27t26.5 71q0 45 -26.5 72.5t-68.5 27.5t-70.5 -27.5t-28.5 -72.5z" />
<glyph unicode="&#x2db;" d="M748 0q-45 -18 -75 -38t-48 -42t-25.5 -46.5t-7.5 -51.5q0 -29 15 -48.5t52 -19.5q29 0 49 7t34 13l47 -154q-28 -15 -72.5 -29.5t-113.5 -14.5q-46 0 -86.5 13.5t-70.5 39.5t-47.5 64.5t-17.5 89.5q0 77 54 152t160 125z" />
<glyph unicode="&#x2dc;" d="M856 1511q0 -45 -15.5 -89t-44 -78.5t-68 -55.5t-88.5 -21q-48 0 -83.5 13.5t-67 30t-62.5 30t-70 13.5q-36 0 -62.5 -26t-26.5 -72l-140 30q0 44 15.5 88t43.5 79t67.5 57t88.5 22q40 0 75 -13.5t68.5 -30t67.5 -30t72 -13.5q36 0 63 25.5t27 71.5z" />
<glyph unicode="&#x2dd;" d="M780 1518h273l-306 -265h-212zM413 1518h261l-258 -265h-206z" />
<glyph unicode="&#x2f3;" d="M441 -222q0 33 13 61t35.5 48.5t53 32t65.5 11.5q34 0 64 -11.5t52 -32t34.5 -48.5t12.5 -61t-12.5 -60t-34.5 -46.5t-52 -30.5t-64 -11q-35 0 -65.5 11t-53 30.5t-35.5 47t-13 59.5zM551 -222q0 -24 16 -39.5t41 -15.5q23 0 38 15.5t15 39.5q0 26 -15 42.5t-38 16.5 q-25 0 -41 -16.5t-16 -42.5z" />
<glyph unicode="&#x300;" d="M-483 1210h-170l-219 350h225z" />
<glyph unicode="&#x301;" d="M-510 1561h224l-204 -352h-166z" />
<glyph unicode="&#x303;" d="M-185 1511q0 -45 -15.5 -89t-44 -78.5t-68 -55.5t-88.5 -21q-48 0 -83.5 13.5t-67 30t-62.5 30t-70 13.5q-36 0 -62.5 -26t-26.5 -72l-140 30q0 44 15.5 88t43.5 79t67.5 57t88.5 22q40 0 75 -13.5t68.5 -30t67.5 -30t72 -13.5q36 0 63 25.5t27 71.5z" />
<glyph unicode="&#x309;" d="M-710 1263l-13 137q73 5 105.5 19.5t32.5 46.5q0 20 -11 33.5t-30 21.5t-46 11.5t-58 3.5l7 133q184 0 277 -52.5t93 -142.5q0 -35 -13 -60.5t-34 -43t-48 -27.5t-55 -14v-66h-207z" />
<glyph unicode="&#x30f;" d="M-508 1252h-232l-293 266h280zM-178 1252h-224l-245 266h273z" />
<glyph unicode="&#x323;" d="M-755 -224q0 30 11 56t32 44.5t51 29.5t68 11q37 0 67 -11t51 -29.5t32.5 -44.5t11.5 -56t-11.5 -55.5t-32.5 -44.5t-51 -29.5t-67 -10.5q-38 0 -68 10.5t-51 29.5t-32 44.5t-11 55.5z" />
<glyph unicode="&#x384;" d="M661 1665h277l-217 -399h-140z" />
<glyph unicode="&#x385;" d="M646 1801h272l-168 -324h-147zM259 1353q0 28 10.5 52t29 41.5t44.5 27.5t58 10q31 0 57 -10t44.5 -27.5t29 -41.5t10.5 -52q0 -27 -10.5 -51t-29 -41t-44.5 -27t-57 -10q-32 0 -58 10t-44.5 27t-29 41t-10.5 51zM808 1355q0 28 10.5 51.5t29 41t44.5 27.5t58 10 q31 0 57 -10t44.5 -27.5t29 -41t10.5 -51.5t-10.5 -52t-29 -41.5t-44.5 -27.5t-57 -10q-32 0 -58 10t-44.5 27.5t-29 41.5t-10.5 52z" />
<glyph unicode="&#x386;" d="M847 304h-437l-86 -304h-296l477 1456h255l468 -1456h-296zM479 543h302l-149 536zM118 1665h277l-217 -399h-140z" />
<glyph unicode="&#x387;" d="M557 701q0 32 11 59.5t31.5 47.5t50 31.5t65.5 11.5t65.5 -11.5t50 -31.5t31.5 -47.5t11 -59.5t-11 -59t-31.5 -47t-50 -31.5t-65.5 -11.5t-65.5 11.5t-50 31.5t-31.5 47t-11 59z" />
<glyph unicode="&#x388;" horiz-adv-x="1329" d="M1127 638h-598v-411h699v-227h-981v1456h978v-229h-696v-367h598v-222zM-54 1667h277l-217 -399h-140z" />
<glyph unicode="&#x389;" horiz-adv-x="1329" d="M1192 0h-278v631h-412v-631h-279v1456h279v-597h412v597h278v-1456zM-28 1663h277l-217 -399h-140z" />
<glyph unicode="&#x38a;" horiz-adv-x="1329" d="M293 1456h842v-227h-284v-1003h284v-226h-842v226h277v1003h-277v227zM19 1667h277l-217 -399h-140z" />
<glyph unicode="&#x38c;" horiz-adv-x="1249" d="M1167 621q0 -140 -37 -258t-107 -203t-170.5 -132.5t-226.5 -47.5t-224 47.5t-165 133t-102 203t-35 257.5v212q0 140 35 258t102 203.5t164.5 133.5t223.5 48q127 0 227.5 -48t170.5 -133.5t107 -203.5t37 -258v-212zM882 835q0 89 -14.5 164t-45.5 129t-79.5 84.5 t-117.5 30.5q-68 0 -114 -30.5t-74 -84.5t-40 -129t-12 -164v-214q0 -88 12 -163t40 -130t74 -86t115 -31q68 0 116.5 31t79 85.5t45.5 129.5t15 164v214zM-42 1665h277l-217 -399h-140z" />
<glyph unicode="&#x38e;" horiz-adv-x="1329" d="M728 785l287 671h309l-458 -952l-1 -504h-280l-1 516l-451 940h308zM-98 1665h277l-217 -399h-140z" />
<glyph unicode="&#x38f;" horiz-adv-x="1249" d="M697 272q37 16 68 55t53.5 104t34.5 158t12 216v53q0 194 -60 291t-166 97q-104 0 -164.5 -97.5t-60.5 -290.5v-53q0 -124 12.5 -217t35.5 -158t55 -103.5t72 -54.5v-272h-469v228h268q-60 43 -111.5 104t-89.5 135.5t-59.5 160t-21.5 177.5v51q0 136 39 250t109 196.5 t168 128t217 45.5t217.5 -45.5t169 -128t109.5 -196.5t39 -250v-51q0 -92 -21.5 -178t-59 -160t-89 -135t-110.5 -104h273v-228h-470v272zM5 1665h277l-217 -399h-140z" />
<glyph unicode="&#x390;" d="M179 1082h564v-722q0 -54 12 -84t32 -45t47 -18.5t57 -3.5q45 0 84.5 15t66.5 32l45 -201q-32 -24 -63 -39t-61.5 -23t-61.5 -11t-63 -3q-92 0 -162 20t-117.5 65t-72 116.5t-24.5 174.5v500h-283v227zM602 1728h272l-168 -324h-147zM215 1280q0 28 10.5 52t29 41.5 t44.5 27.5t58 10q31 0 57 -10t44.5 -27.5t29 -41.5t10.5 -52q0 -27 -10.5 -51t-29 -41t-44.5 -27t-57 -10q-32 0 -58 10t-44.5 27t-29 41t-10.5 51zM764 1282q0 28 10.5 51.5t29 41t44.5 27.5t58 10q31 0 57 -10t44.5 -27.5t29 -41t10.5 -51.5t-10.5 -52t-29 -41.5 t-44.5 -27.5t-57 -10q-32 0 -58 10t-44.5 27.5t-29 41.5t-10.5 52z" />
<glyph unicode="&#x391;" d="M847 304h-437l-86 -304h-296l477 1456h255l468 -1456h-296zM479 543h302l-149 536z" />
<glyph unicode="&#x392;" d="M129 0v1456h489q119 0 216.5 -24t166.5 -73t106.5 -124t37.5 -177q-1 -102 -54.5 -183t-157.5 -123q63 -16 109 -48t76.5 -75.5t45 -95t14.5 -106.5q0 -105 -36 -185t-103 -134t-163 -81t-216 -27h-531zM411 642v-415h250q115 1 175.5 56.5t60.5 145.5q1 100 -54 156 t-170 57h-262zM411 845h209q117 1 180 49t64 141q0 102 -63 146.5t-182 45.5h-208v-382z" />
<glyph unicode="&#x393;" d="M1083 1228h-661v-1228h-281v1456h942v-228z" />
<glyph unicode="&#x395;" d="M1027 638h-598v-411h699v-227h-981v1456h978v-229h-696v-367h598v-222z" />
<glyph unicode="&#x396;" d="M431 227h722v-227h-1064v172l706 1055h-704v229h1044l1 -167z" />
<glyph unicode="&#x397;" d="M1092 0h-278v631h-412v-631h-279v1456h279v-597h412v597h278v-1456z" />
<glyph unicode="&#x398;" d="M818 614h-388v223h388v-223zM1158 621q0 -140 -37 -258t-107 -203t-170.5 -132.5t-226.5 -47.5t-224 47.5t-165 133t-102 203t-35 257.5v212q0 140 35 258t102 203.5t164.5 133.5t223.5 48q127 0 227.5 -48t170.5 -133.5t107 -203.5t37 -258v-212zM873 835 q0 89 -14.5 164t-45.5 129t-79.5 84.5t-117.5 30.5q-68 0 -114 -30.5t-74 -84.5t-40 -129t-12 -164v-214q0 -88 12 -163t40 -130t74 -86t115 -31q68 0 116.5 31t79 85.5t45.5 129.5t15 164v214z" />
<glyph unicode="&#x399;" d="M193 1456h842v-227h-284v-1003h284v-226h-842v226h277v1003h-277v227z" />
<glyph unicode="&#x39a;" d="M565 598l-154 -169v-429h-282v1456h282v-667l132 178l354 489h344l-490 -644l508 -812h-334z" />
<glyph unicode="&#x39b;" d="M612 1079l-296 -1079h-293l448 1456h284l449 -1456h-294z" />
<glyph unicode="&#x39c;" d="M476 1456l138 -547l157 547h349v-1456h-258v431l12 681l-191 -632h-139l-171 605l12 -654v-431h-258v1456h349z" />
<glyph unicode="&#x39d;" d="M1091 0h-280l-405 939v-939h-283v1456h283l402 -935l1 935h282v-1456z" />
<glyph unicode="&#x39e;" d="M121 226h975v-226h-975v226zM229 849h756v-219h-756v219zM140 1456h920v-228h-920v228z" />
<glyph unicode="&#x39f;" d="M1147 621q0 -140 -37 -258t-107 -203t-170.5 -132.5t-226.5 -47.5t-224 47.5t-165 133t-102 203t-35 257.5v212q0 140 35 258t102 203.5t164.5 133.5t223.5 48q127 0 227.5 -48t170.5 -133.5t107 -203.5t37 -258v-212zM862 835q0 89 -14.5 164t-45.5 129t-79.5 84.5 t-117.5 30.5q-68 0 -114 -30.5t-74 -84.5t-40 -129t-12 -164v-214q0 -88 12 -163t40 -130t74 -86t115 -31q68 0 116.5 31t79 85.5t45.5 129.5t15 164v214z" />
<glyph unicode="&#x3a0;" d="M1095 0h-281v1228h-412v-1228h-281v1456h974v-1456z" />
<glyph unicode="&#x3a1;" d="M430 534v-534h-281v1456h498q119 0 215 -34.5t163.5 -96t104 -147.5t36.5 -191q0 -98 -36.5 -181t-104 -143.5t-163.5 -94.5t-215 -34h-217zM430 762h217q60 0 104 18t73.5 49t44 71.5t14.5 84.5q0 51 -14.5 95t-44 77t-73.5 52t-104 19h-217v-466z" />
<glyph unicode="&#x3a3;" d="M856 724l-368 -499h656v-224h-1033v151l448 581l-448 571v152h1004v-228h-622l363 -487v-17z" />
<glyph unicode="&#x3a4;" d="M1201 1227h-449v-1227h-282v1227h-443v229h1174v-229z" />
<glyph unicode="&#x3a5;" d="M628 785l287 671h309l-458 -952l-1 -504h-280l-1 516l-451 940h308z" />
<glyph unicode="&#x3a6;" d="M804 1260q102 -11 186 -54t144.5 -113t94 -164.5t33.5 -208.5q0 -112 -33.5 -204.5t-94 -161.5t-144.5 -111.5t-186 -53.5v-189h-280v189q-102 11 -186.5 53t-145 110.5t-94 161t-33.5 204.5q0 114 33.5 209t94 165.5t145 113.5t186.5 54v196h280v-196zM341 718 q0 -121 49 -192.5t134 -91.5v581q-85 -21 -134 -96t-49 -201zM984 720q0 125 -48 199.5t-132 95.5v-580q84 20 132 92t48 193z" />
<glyph unicode="&#x3a7;" d="M624 934l259 522h330l-410 -722l420 -734h-328l-267 530l-266 -530h-332l420 734l-409 722h328z" />
<glyph unicode="&#x3a8;" d="M807 575q76 22 115 96.5t39 218.5v566h282v-566q0 -126 -31 -222t-88 -163.5t-137.5 -107.5t-179.5 -52v-345h-280v344q-104 10 -188.5 48.5t-144.5 106.5t-92.5 165.5t-32.5 225.5v566h281v-566q0 -144 46.5 -218.5t130.5 -96.5v881h280v-881z" />
<glyph unicode="&#x3aa;" d="M193 1456h842v-227h-284v-1003h284v-226h-842v226h277v1003h-277v227zM219 1714q0 26 10 49t28 40t43 26.5t55 9.5t55 -9.5t43 -26.5t28 -40t10 -49t-10 -49t-28 -39.5t-43 -26t-55 -9.5t-55 9.5t-43 26t-28 39.5t-10 49zM699 1714q0 26 10 49t28 39.5t43 26t55 9.5 t55 -9.5t43 -26t28 -39.5t10 -49q0 -27 -10 -50t-28 -40t-43 -26.5t-55 -9.5t-55 9.5t-43 26.5t-28 40t-10 50z" />
<glyph unicode="&#x3ab;" d="M628 785l287 671h309l-458 -952l-1 -504h-280l-1 516l-451 940h308zM246 1714q0 26 10 49t28 40t43 26.5t55 9.5t55 -9.5t43 -26.5t28 -40t10 -49t-10 -49t-28 -39.5t-43 -26t-55 -9.5t-55 9.5t-43 26t-28 39.5t-10 49zM726 1714q0 26 10 49t28 39.5t43 26t55 9.5 t55 -9.5t43 -26t28 -39.5t10 -49q0 -27 -10 -50t-28 -40t-43 -26.5t-55 -9.5t-55 9.5t-43 26.5t-28 40t-10 50z" />
<glyph unicode="&#x3ac;" d="M1028 1082v-759q0 -65 19.5 -89.5t52.5 -24.5q25 0 43 5l24 -209q-32 -16 -61.5 -21t-64.5 -5q-89 0 -153.5 34.5t-99.5 106.5q-49 -66 -118 -103t-163 -37q-97 0 -171.5 39t-125.5 109.5t-77.5 168t-26.5 214.5v21q0 125 26.5 229.5t77.5 180.5t126 118t173 42 q90 0 157 -36t115 -101l56 117h191zM384 511q0 -66 10 -122.5t33 -97.5t59.5 -64.5t90.5 -23.5q62 0 105 19.5t69 54.5q-1 11 -1 22.5v23.5v481q-27 35 -69.5 54t-101.5 19q-53 0 -90.5 -27.5t-60.5 -74.5t-33.5 -109.5t-10.5 -133.5v-21zM615 1676h277l-217 -399h-140z" />
<glyph unicode="&#x3ad;" d="M655 458q-126 0 -185.5 -30.5t-59.5 -103.5q0 -26 14 -50t43.5 -42.5t76 -30t111.5 -11.5q59 0 105.5 10.5t78 28.5t48 41.5t16.5 49.5h277q0 -89 -44.5 -153t-117 -105.5t-164 -61.5t-185.5 -20q-119 0 -218 22t-170 64t-110 102.5t-39 137.5q0 92 54.5 155.5 t162.5 95.5q-95 36 -146.5 96.5t-51.5 132.5q0 77 36 136t103.5 98.5t163 60t215.5 20.5q101 0 191 -22.5t157.5 -65t106.5 -104t39 -138.5h-278q0 28 -17.5 50t-48.5 37.5t-72.5 23.5t-90.5 8q-66 0 -109.5 -11t-69.5 -28.5t-36.5 -40t-10.5 -45.5q0 -27 11.5 -48.5 t38 -37.5t69.5 -24.5t106 -8.5h230v-188h-230zM648 1675h277l-217 -399h-140z" />
<glyph unicode="&#x3ae;" d="M387 1082l13 -157q56 83 139.5 130t189.5 47q83 0 151.5 -23t117 -73.5t75.5 -130t27 -193.5v-1097h-280v1097q0 100 -49 147.5t-143 47.5q-75 0 -129.5 -23t-91.5 -63v-791h-278v1082h258zM631 1676h277l-217 -399h-140z" />
<glyph unicode="&#x3af;" d="M179 1082h564v-722q0 -54 12 -84t32 -45t47 -18.5t57 -3.5q45 0 84.5 15t66.5 32l45 -201q-32 -24 -63 -39t-61.5 -23t-61.5 -11t-63 -3q-92 0 -162 20t-117.5 65t-72 116.5t-24.5 174.5v500h-283v227zM619 1656h277l-217 -399h-140z" />
<glyph unicode="&#x3b0;" d="M404 1082v-625q0 -72 15.5 -120.5t42.5 -78.5t64.5 -43t82.5 -13q60 0 102 32t68.5 83.5t38.5 117t12 131.5q-2 134 -31 262.5t-74 253.5h269q23 -46 43.5 -101.5t36.5 -120t25 -138.5t9 -156q0 -122 -26 -229t-83.5 -186.5t-151 -125.5t-228.5 -46q-114 0 -205.5 28 t-155.5 86.5t-98 149.5t-34 216v623h278zM579 1740h272l-168 -324h-147zM192 1292q0 28 10.5 52t29 41.5t44.5 27.5t58 10q31 0 57 -10t44.5 -27.5t29 -41.5t10.5 -52q0 -27 -10.5 -51t-29 -41t-44.5 -27t-57 -10q-32 0 -58 10t-44.5 27t-29 41t-10.5 51zM741 1294 q0 28 10.5 51.5t29 41t44.5 27.5t58 10q31 0 57 -10t44.5 -27.5t29 -41t10.5 -51.5t-10.5 -52t-29 -41.5t-44.5 -27.5t-57 -10q-32 0 -58 10t-44.5 27.5t-29 41.5t-10.5 52z" />
<glyph unicode="&#x3b1;" d="M1028 1082v-759q0 -65 19.5 -89.5t52.5 -24.5q25 0 43 5l24 -209q-32 -16 -61.5 -21t-64.5 -5q-89 0 -153.5 34.5t-99.5 106.5q-49 -66 -118 -103t-163 -37q-97 0 -171.5 39t-125.5 109.5t-77.5 168t-26.5 214.5v21q0 125 26.5 229.5t77.5 180.5t126 118t173 42 q90 0 157 -36t115 -101l56 117h191zM384 511q0 -66 10 -122.5t33 -97.5t59.5 -64.5t90.5 -23.5q62 0 105 19.5t69 54.5q-1 11 -1 22.5v23.5v481q-27 35 -69.5 54t-101.5 19q-53 0 -90.5 -27.5t-60.5 -74.5t-33.5 -109.5t-10.5 -133.5v-21z" />
<glyph unicode="&#x3b2;" d="M638 1477q105 0 191 -27t146.5 -77.5t93.5 -124t33 -166.5q0 -99 -50 -179.5t-140 -129.5q122 -43 187.5 -135t65.5 -223q0 -104 -31.5 -185.5t-89.5 -137t-141 -84.5t-185 -29q-72 0 -146 19t-137 60v-460h-277v1440q0 98 38 179t103.5 138.5t152.5 89.5t186 32z M634 859q102 0 146 54.5t44 149.5q0 37 -11.5 71t-35 60t-58.5 42t-81 16q-44 0 -81 -15t-64 -43t-42.5 -67.5t-15.5 -88.5v-772q39 -30 95.5 -47t127.5 -17q54 0 97 16.5t72 45.5t44.5 68.5t15.5 85.5q0 53 -14 96.5t-41.5 74t-68.5 47.5t-94 17h-102v206h67z" />
<glyph unicode="&#x3b3;" d="M916 1082h290l-445 -1063v-436h-278v440l-443 1059h291l281 -773l14 -65l17 70z" />
<glyph unicode="&#x3b4;" d="M237 1251q0 75 27.5 134t80 100.5t128 63t171.5 21.5q79 0 152.5 -22t153.5 -55l-44 -184q-20 6 -46.5 15.5t-58 17.5t-66.5 14t-71 6q-75 0 -118.5 -28.5t-43.5 -75.5q0 -15 6 -32t24 -35t51 -37t86 -38q239 -81 361 -222.5t122 -351.5v-20q0 -116 -35.5 -215 t-103 -171.5t-165.5 -114t-223 -41.5q-127 0 -226 40.5t-167 111.5t-103.5 168t-35.5 210v20q0 84 26.5 157.5t71.5 131t105 96.5t128 55l2 13q-87 42 -138 109t-51 159zM370 534q0 -68 15 -128.5t46 -105.5t79.5 -71.5t114.5 -26.5q65 0 112 26.5t78 71.5t45.5 105.5 t14.5 128.5v20q0 52 -17.5 105t-50 98t-79 77t-103.5 43q-66 0 -114 -26.5t-79.5 -71t-46.5 -103t-15 -122.5v-20z" />
<glyph unicode="&#x3b5;" d="M655 458q-126 0 -185.5 -30.5t-59.5 -103.5q0 -26 14 -50t43.5 -42.5t76 -30t111.5 -11.5q59 0 105.5 10.5t78 28.5t48 41.5t16.5 49.5h277q0 -89 -44.5 -153t-117 -105.5t-164 -61.5t-185.5 -20q-119 0 -218 22t-170 64t-110 102.5t-39 137.5q0 92 54.5 155.5 t162.5 95.5q-95 36 -146.5 96.5t-51.5 132.5q0 77 36 136t103.5 98.5t163 60t215.5 20.5q101 0 191 -22.5t157.5 -65t106.5 -104t39 -138.5h-278q0 28 -17.5 50t-48.5 37.5t-72.5 23.5t-90.5 8q-66 0 -109.5 -11t-69.5 -28.5t-36.5 -40t-10.5 -45.5q0 -27 11.5 -48.5 t38 -37.5t69.5 -24.5t106 -8.5h230v-188h-230z" />
<glyph unicode="&#x3b6;" d="M1068 1456v-160l-416 -428q-65 -59 -115 -108.5t-84 -99t-51.5 -104t-17.5 -122.5q0 -47 11 -79.5t32.5 -55.5t55 -37.5t78.5 -23.5l187 -37q64 -15 117 -33.5t91 -47.5t58.5 -71t20.5 -103q0 -43 -21 -90t-53.5 -92t-72 -85t-78.5 -67l-142 110q48 51 71 94t21 74 q1 17 -4.5 32.5t-19.5 28.5t-36.5 22.5t-56.5 15.5l-177 31q-96 18 -164 50.5t-111.5 79.5t-63.5 108t-20 136q0 80 22.5 152.5t66.5 143.5t110.5 143t154.5 152l231 247h-612v224h988z" />
<glyph unicode="&#x3b7;" d="M387 1082l13 -157q56 83 139.5 130t189.5 47q83 0 151.5 -23t117 -73.5t75.5 -130t27 -193.5v-1097h-280v1097q0 100 -49 147.5t-143 47.5q-75 0 -129.5 -23t-91.5 -63v-791h-278v1082h258z" />
<glyph unicode="&#x3b8;" d="M1095 521q0 -133 -32.5 -234t-92 -169.5t-144 -103.5t-189.5 -35t-190 35t-145 103.5t-93 169.5t-33 234v405q0 133 32.5 236t92.5 173t144.5 106t189.5 36t190 -36t145 -106t92.5 -173t32.5 -236v-405zM818 633h-363v-159q0 -79 11.5 -131t34 -83.5t57 -44.5t79.5 -13 q44 0 78 13t57 44.5t34.5 83.5t11.5 131v159zM455 848h363v128q0 78 -11.5 130.5t-34.5 85t-57.5 46.5t-79.5 14t-79 -14t-56.5 -46.5t-33.5 -85t-11 -130.5v-128z" />
<glyph unicode="&#x3b9;" d="M179 1082h564v-722q0 -54 12 -84t32 -45t47 -18.5t57 -3.5q45 0 84.5 15t66.5 32l45 -201q-32 -24 -63 -39t-61.5 -23t-61.5 -11t-63 -3q-92 0 -162 20t-117.5 65t-72 116.5t-24.5 174.5v500h-283v227z" />
<glyph unicode="&#x3ba;" d="M604 427l-167 -141v-286h-278v1082h278v-474l107 127l295 347h349l-386 -448l405 -634h-356z" />
<glyph unicode="&#x3bb;" d="M333 0h-301l385 1056l-30 74q-13 33 -31.5 66.5t-43 60.5t-54 43.5t-65.5 16.5q-17 0 -37 -2l-40 -4l-6 208q16 4 36 8.5t41.5 7.5t43 5t41.5 2q73 0 129.5 -28t98 -69t69 -89.5t44.5 -88.5l347 -884q10 -31 24 -62.5t32.5 -56.5t41 -40.5t48.5 -15.5h12.5t8.5 0.5t9 1 t14 1.5l-6 -218q-20 -6 -42.5 -8.5t-42.5 -2.5q-75 0 -133 24t-101 64.5t-73.5 93t-50.5 108.5l-158 441l-29 -139z" />
<glyph unicode="&#x3bc;" d="M450 1082v-620q0 -80 13.5 -130t38 -78.5t58.5 -38.5t75 -10q81 0 131.5 28.5t77.5 79.5v769h279v-1082h-259l-6 72q-43 -45 -99.5 -69t-128.5 -24q-107 0 -180 48v-443h-278v1498h278z" />
<glyph unicode="&#x3bd;" d="M601 321l14 -78l14 75l238 764h290l-411 -1082h-261l-413 1082h290z" />
<glyph unicode="&#x3be;" d="M1050 1210q-37 9 -65.5 16t-54.5 11.5t-51 7t-54 2.5q-81 0 -136.5 -11t-89.5 -30.5t-48.5 -46.5t-14.5 -58q0 -34 14.5 -62.5t49 -49.5t92.5 -33t144 -12h149v-230h-143q-201 0 -294.5 -65t-93.5 -193q0 -54 23 -94t64 -68.5t96.5 -47t121.5 -29.5l99 -22 q61 -14 113.5 -30.5t91.5 -44t61 -70t22 -109.5q0 -43 -21 -90.5t-53.5 -92.5t-72.5 -84.5t-79 -66.5l-135 109q48 51 67 91.5t19 78.5q0 68 -118 98l-62 16q-125 31 -221 63t-161.5 80t-99 120.5t-33.5 184.5q0 142 83.5 237.5t241.5 141.5q-117 38 -180 105t-63 164 q0 89 36.5 159.5t105.5 119.5t169.5 75t228.5 26q47 0 87 -3t75 -9.5t67.5 -15.5t65.5 -21z" />
<glyph unicode="&#x3bf;" d="M103 551q0 118 34 218.5t99.5 174.5t160 116t216.5 42t217 -42t160.5 -116t99.5 -174.5t34 -218.5v-21q0 -119 -34 -219.5t-99 -174.5t-160 -115.5t-216 -41.5q-122 0 -217.5 41.5t-161 115.5t-99.5 174.5t-34 219.5v21zM381 530q0 -68 13 -127.5t41 -104t72.5 -70.5 t107.5 -26q61 0 105 26t71.5 70.5t40.5 104t13 127.5v21q0 66 -13 125t-40.5 104t-71.5 71t-107 26q-62 0 -106 -26t-72 -71t-41 -104t-13 -125v-21z" />
<glyph unicode="&#x3c0;" d="M1198 868h-154v-546q0 -39 5.5 -62t17 -34.5t29 -15t41.5 -3.5q31 0 51 6.5t40 16.5l45 -190q-62 -39 -113.5 -49t-101.5 -10q-74 0 -129 16.5t-91 55t-54 100.5t-18 153v562h-254v-868h-278v868h-134v214h1098v-214z" />
<glyph unicode="&#x3c1;" d="M1119 511q0 -117 -27 -214.5t-80 -168t-131 -110t-180 -39.5q-96 0 -167.5 33.5t-122.5 95.5v-524h-278v992q0 117 36 214t102.5 166t160 107.5t209.5 38.5q118 0 207.5 -42t149.5 -118t90.5 -180.5t30.5 -229.5v-21zM841 532q0 71 -11 133.5t-36.5 109.5t-66 74.5 t-98.5 27.5t-99 -26.5t-67.5 -71t-39 -103t-12.5 -122.5l-1 -1h1v-244q30 -51 82 -79t133 -28q59 0 100 23.5t66.5 65t37 98t11.5 122.5v21z" />
<glyph unicode="&#x3c2;" d="M603 1102q106 0 194.5 -28.5t152.5 -82.5t99 -132t35 -177h-262q0 40 -13 76t-40 62t-68.5 41.5t-97.5 15.5q-67 0 -112.5 -27t-73.5 -72t-40 -103t-12 -120v-30q0 -134 62 -213t205 -95q103 -16 179 -36.5t126.5 -52t76 -78t27.5 -113.5q0 -66 -26.5 -121.5t-70 -101 t-99 -81t-114.5 -60.5l-122 153q22 7 50 24t52 40t40.5 51t15.5 58q0 45 -46.5 70.5t-134.5 33.5q-256 44 -378 173.5t-122 348.5v30q0 114 33.5 213.5t98.5 173.5t162 117t223 43z" />
<glyph unicode="&#x3c3;" d="M1158 856h-254q38 -31 70.5 -69.5t56 -82.5t36.5 -93t13 -101v-21q0 -106 -32.5 -199t-95.5 -162t-155 -109t-210 -40q-122 0 -216.5 41.5t-159.5 115.5t-98.5 174.5t-33.5 219.5v21q0 114 33.5 211t98 168t159 111.5t215.5 40.5h573v-226zM358 530q0 -68 12 -127.5 t39 -104t71 -70.5t107 -26q58 0 99 26t67 70.5t37.5 104t11.5 127.5v21q0 62 -11.5 117.5t-37 97t-66.5 66t-101 24.5q-62 0 -105.5 -24.5t-70.5 -66t-39.5 -97t-12.5 -117.5v-21z" />
<glyph unicode="&#x3c4;" d="M1034 851h-341v-471q0 -60 11.5 -95t32 -52.5t48 -22.5t60.5 -5q51 0 86.5 11.5t70.5 26.5l32 -209q-32 -17 -62 -27.5t-60 -16.5t-60.5 -8.5t-64.5 -2.5q-88 0 -157 21.5t-117 69.5t-73 125t-25 188v468h-350v231h969v-231z" />
<glyph unicode="&#x3c5;" d="M404 1082v-625q0 -72 15.5 -120.5t42.5 -78.5t64.5 -43t82.5 -13q60 0 102 32t68.5 83.5t38.5 117t12 131.5q-2 134 -31 262.5t-74 253.5h269q23 -46 43.5 -101.5t36.5 -120t25 -138.5t9 -156q0 -122 -26 -229t-83.5 -186.5t-151 -125.5t-228.5 -46q-114 0 -205.5 28 t-155.5 86.5t-98 149.5t-34 216v623h278z" />
<glyph unicode="&#x3c6;" d="M510 -9q-120 21 -203 76t-134 133t-73.5 173.5t-22.5 197.5q0 84 16.5 160.5t46.5 143.5t72 122.5t93 96.5l188 -152q-35 -39 -60 -84t-42 -93t-26 -97.5t-10 -96.5q0 -58 8 -110.5t26 -96.5t47.5 -78t73.5 -55v571q0 65 23 118.5t63.5 92t95.5 60t118 21.5 q109 0 188 -47t130.5 -123t76 -172.5t24.5 -195.5t-23 -192.5t-75 -170t-136 -130.5t-206 -74v-467h-279v469zM789 227q45 20 76 53.5t50 77t27 94t8 104.5q-1 67 -8.5 124.5t-21.5 99.5t-34 66t-46 24t-38.5 -18t-12.5 -46v-579z" />
<glyph unicode="&#x3c7;" d="M636 744l238 338h299l-363 -531l376 -551h-300l-249 354l-247 -354h-301l376 551l-362 531h299z" />
<glyph unicode="&#x3c8;" d="M784 1082v-855q50 21 85 56.5t56.5 83t31 104.5t9.5 120q-1 127 -21.5 250t-49.5 241h261q35 -89 61.5 -211t26.5 -280q0 -108 -24 -208t-78 -181.5t-142 -137.5t-216 -75v-467h-278v469q-101 18 -182 62t-137.5 117.5t-87 177.5t-30.5 242v492h280v-495q0 -77 11.5 -136 t32 -102.5t49.5 -72.5t64 -46v852h278z" />
<glyph unicode="&#x3c9;" d="M422 1082q-44 -125 -69.5 -253.5t-27.5 -262.5q0 -70 3 -135.5t10 -116t19.5 -81t30.5 -30.5t33.5 15t27.5 49t19 88.5t7 133.5v345h292v-345q0 -79 7 -133.5t18.5 -88.5t27 -49t33.5 -15q19 0 31.5 30.5t20 80.5t10.5 115.5t3 136.5q-2 134 -28.5 262.5t-69.5 253.5h268 q22 -46 41.5 -101.5t34 -120t23 -138.5t8.5 -156q0 -122 -16.5 -229t-55.5 -186.5t-102.5 -125t-156.5 -45.5q-81 0 -142.5 47t-101.5 138q-39 -91 -100.5 -138t-141.5 -47q-94 0 -157.5 45.5t-102.5 125t-55.5 186.5t-16.5 229q0 82 9 156t23.5 138.5t34 120t40.5 101.5 h269z" />
<glyph unicode="&#x3ca;" d="M179 1082h564v-722q0 -54 12 -84t32 -45t47 -18.5t57 -3.5q45 0 84.5 15t66.5 32l45 -201q-32 -24 -63 -39t-61.5 -23t-61.5 -11t-63 -3q-92 0 -162 20t-117.5 65t-72 116.5t-24.5 174.5v500h-283v227zM243 1371q0 26 10 49t28 40t43 26.5t55 9.5t55 -9.5t43 -26.5 t28 -40t10 -49t-10 -49t-28 -39.5t-43 -26t-55 -9.5t-55 9.5t-43 26t-28 39.5t-10 49zM723 1371q0 26 10 49t28 39.5t43 26t55 9.5t55 -9.5t43 -26t28 -39.5t10 -49q0 -27 -10 -50t-28 -40t-43 -26.5t-55 -9.5t-55 9.5t-43 26.5t-28 40t-10 50z" />
<glyph unicode="&#x3cb;" d="M404 1082v-625q0 -72 15.5 -120.5t42.5 -78.5t64.5 -43t82.5 -13q60 0 102 32t68.5 83.5t38.5 117t12 131.5q-2 134 -31 262.5t-74 253.5h269q23 -46 43.5 -101.5t36.5 -120t25 -138.5t9 -156q0 -122 -26 -229t-83.5 -186.5t-151 -125.5t-228.5 -46q-114 0 -205.5 28 t-155.5 86.5t-98 149.5t-34 216v623h278zM220 1383q0 26 10 49t28 40t43 26.5t55 9.5t55 -9.5t43 -26.5t28 -40t10 -49t-10 -49t-28 -39.5t-43 -26t-55 -9.5t-55 9.5t-43 26t-28 39.5t-10 49zM700 1383q0 26 10 49t28 39.5t43 26t55 9.5t55 -9.5t43 -26t28 -39.5t10 -49 q0 -27 -10 -50t-28 -40t-43 -26.5t-55 -9.5t-55 9.5t-43 26.5t-28 40t-10 50z" />
<glyph unicode="&#x3cc;" d="M103 551q0 118 34 218.5t99.5 174.5t160 116t216.5 42t217 -42t160.5 -116t99.5 -174.5t34 -218.5v-21q0 -119 -34 -219.5t-99 -174.5t-160 -115.5t-216 -41.5q-122 0 -217.5 41.5t-161 115.5t-99.5 174.5t-34 219.5v21zM381 530q0 -68 13 -127.5t41 -104t72.5 -70.5 t107.5 -26q61 0 105 26t71.5 70.5t40.5 104t13 127.5v21q0 66 -13 125t-40.5 104t-71.5 71t-107 26q-62 0 -106 -26t-72 -71t-41 -104t-13 -125v-21zM615 1676h277l-217 -399h-140z" />
<glyph unicode="&#x3cd;" d="M404 1082v-625q0 -72 15.5 -120.5t42.5 -78.5t64.5 -43t82.5 -13q60 0 102 32t68.5 83.5t38.5 117t12 131.5q-2 134 -31 262.5t-74 253.5h269q23 -46 43.5 -101.5t36.5 -120t25 -138.5t9 -156q0 -122 -26 -229t-83.5 -186.5t-151 -125.5t-228.5 -46q-114 0 -205.5 28 t-155.5 86.5t-98 149.5t-34 216v623h278zM596 1667h277l-217 -399h-140z" />
<glyph unicode="&#x3ce;" d="M422 1082q-44 -125 -69.5 -253.5t-27.5 -262.5q0 -70 3 -135.5t10 -116t19.5 -81t30.5 -30.5t33.5 15t27.5 49t19 88.5t7 133.5v345h292v-345q0 -79 7 -133.5t18.5 -88.5t27 -49t33.5 -15q19 0 31.5 30.5t20 80.5t10.5 115.5t3 136.5q-2 134 -28.5 262.5t-69.5 253.5h268 q22 -46 41.5 -101.5t34 -120t23 -138.5t8.5 -156q0 -122 -16.5 -229t-55.5 -186.5t-102.5 -125t-156.5 -45.5q-81 0 -142.5 47t-101.5 138q-39 -91 -100.5 -138t-141.5 -47q-94 0 -157.5 45.5t-102.5 125t-55.5 186.5t-16.5 229q0 82 9 156t23.5 138.5t34 120t40.5 101.5 h269zM616 1670h277l-217 -399h-140z" />
<glyph unicode="&#x3d1;" d="M1231 582q-26 -8 -55 -15.5t-61 -13.5v-98q0 -109 -35 -196.5t-98.5 -149.5t-153.5 -95.5t-199 -33.5q-108 0 -197 35.5t-152 99t-97.5 150.5t-34.5 190v256l266 1v-257q0 -53 15.5 -97.5t45 -77t71.5 -50.5t96 -18q87 0 135 64t48 179v97q-100 20 -183.5 65.5 t-144 111.5t-94 150t-33.5 181v22q0 92 28 165t78.5 124t120 78t152.5 27q85 0 152.5 -28t115 -81t73 -130t25.5 -175v-268q58 9 107 21zM634 1071q0 -91 48.5 -161.5t142.5 -103.5v282q0 74 -22 107.5t-67 33.5t-73.5 -32t-28.5 -102v-24z" />
<glyph unicode="&#x3d2;" d="M836 1198q55 149 135 215.5t183 66.5q34 0 67 -6t60 -18l-23 -219q-4 2 -19.5 3.5t-28.5 1.5q-35 0 -62.5 -17.5t-43.5 -51.5l-294 -686v-487h-279v499l-289 674q-17 35 -45.5 52t-61.5 17q-12 0 -27.5 -1.5t-18.5 -3.5l-23 220q26 12 58.5 17.5t67.5 5.5q51 0 96 -14.5 t84.5 -47.5t73 -85.5t61.5 -128.5l152 -408l13 -64l14 63z" />
<glyph unicode="&#x3d6;" d="M1279 881h-122q30 -98 48.5 -212.5t18.5 -242.5q0 -98 -17 -180t-56 -141t-103.5 -92t-158.5 -33q-85 0 -150.5 49t-106.5 144q-41 -95 -105.5 -144t-149.5 -49q-95 0 -159.5 33t-103.5 92t-56 141t-17 180q0 128 18.5 242.5t47.5 212.5h-108v201h1280v-201zM947 426 q-3 112 -21.5 227.5t-49.5 227.5h-487q-32 -112 -50.5 -227.5t-20.5 -227.5q0 -44 3 -84t11 -71t21.5 -49.5t33.5 -18.5q21 0 39 15t31.5 49t21.5 88.5t8 133.5v206h292v-206q0 -79 8 -133.5t21.5 -88.5t31.5 -49t38 -15t33.5 18.5t21.5 49t11 71t3 84.5z" />
<glyph unicode="&#x400;" d="M1027 638h-598v-411h699v-227h-981v1456h978v-229h-696v-367h598v-222zM755 1538h-219l-264 279h306z" />
<glyph unicode="&#x401;" d="M1027 638h-598v-411h699v-227h-981v1456h978v-229h-696v-367h598v-222zM261 1705q0 26 10 49t28 40t43 26.5t55 9.5t55 -9.5t43 -26.5t28 -40t10 -49t-10 -49t-28 -39.5t-43 -26t-55 -9.5t-55 9.5t-43 26t-28 39.5t-10 49zM741 1705q0 26 10 49t28 39.5t43 26t55 9.5 t55 -9.5t43 -26t28 -39.5t10 -49q0 -27 -10 -50t-28 -40t-43 -26.5t-55 -9.5t-55 9.5t-43 26.5t-28 40t-10 50z" />
<glyph unicode="&#x402;" d="M1096 1228h-481v-379q14 2 31 3.5t40 1.5q111 0 201.5 -27t155 -82t100 -139t35.5 -197q0 -80 -23 -156t-77 -136t-142 -96.5t-218 -36.5l-1 212q64 0 100 19.5t54 49t22 64.5t4 66q0 110 -56.5 169.5t-167.5 59.5q-20 0 -33 -1t-25 -3v-620h-281v1228h-303v228h1065 v-228z" />
<glyph unicode="&#x403;" d="M1083 1228h-661v-1228h-281v1456h942v-228zM687 1814h306l-277 -279h-216z" />
<glyph unicode="&#x404;" d="M1155 456q-7 -109 -47 -197t-108 -150t-162 -95.5t-210 -33.5q-125 0 -223.5 42.5t-167.5 121t-105.5 190.5t-36.5 252v283q0 139 37.5 252t105.5 192t164 122t212 43q126 0 222.5 -33.5t164.5 -96.5t106.5 -154t48.5 -206h-280q-5 66 -21.5 115.5t-48 82t-79 48.5 t-113.5 16q-113 0 -176 -94.5t-63 -284.5v-27h472v-227h-472v-31q0 -101 16.5 -173.5t49 -119t79.5 -68t108 -21.5q112 0 175 59t71 193h281z" />
<glyph unicode="&#x405;" d="M887 380q0 39 -13.5 73t-46 63.5t-85 54t-130.5 45.5q-95 26 -181.5 65t-152.5 94t-105.5 128t-39.5 168q0 92 39 167t108 128t163 81.5t204 28.5q114 0 208.5 -33t162.5 -92.5t106 -141.5t38 -180h-274q-2 49 -17.5 90t-46 70.5t-76 46t-106.5 16.5q-56 0 -99.5 -13.5 t-73.5 -38t-45.5 -58t-15.5 -72.5q0 -41 20.5 -74t59.5 -59.5t94.5 -48.5t125.5 -41q100 -29 184 -71t144.5 -99.5t94 -131t33.5 -163.5q0 -96 -38.5 -170.5t-106.5 -126t-162 -78t-205 -26.5q-69 0 -137.5 12.5t-131 38.5t-116.5 65t-93.5 91t-62 118t-22.5 146h276 q2 -66 23 -113t58.5 -77t90 -44t115.5 -14q56 0 99.5 13t73.5 36t46 55.5t16 71.5z" />
<glyph unicode="&#x406;" d="M193 1456h842v-227h-284v-1003h284v-226h-842v226h277v1003h-277v227z" />
<glyph unicode="&#x407;" d="M193 1456h842v-227h-284v-1003h284v-226h-842v226h277v1003h-277v227zM219 1714q0 26 10 49t28 40t43 26.5t55 9.5t55 -9.5t43 -26.5t28 -40t10 -49t-10 -49t-28 -39.5t-43 -26t-55 -9.5t-55 9.5t-43 26t-28 39.5t-10 49zM699 1714q0 26 10 49t28 39.5t43 26t55 9.5 t55 -9.5t43 -26t28 -39.5t10 -49q0 -27 -10 -50t-28 -40t-43 -26.5t-55 -9.5t-55 9.5t-43 26.5t-28 40t-10 50z" />
<glyph unicode="&#x408;" d="M818 1456h281l1 -1009q-1 -104 -39.5 -189.5t-105.5 -147.5t-157.5 -96t-194.5 -34q-110 0 -200 28t-154.5 83.5t-100.5 139.5t-37 197h282q1 -117 52 -169.5t158 -52.5q48 0 88 18.5t68 50.5t43.5 76.5t15.5 95.5v1009z" />
<glyph unicode="&#x409;" d="M779 1456v-508h15q88 0 159 -35.5t121 -98.5t76.5 -150t26.5 -189q0 -104 -26.5 -191t-76.5 -150t-121 -98.5t-159 -35.5h-241v1228h-136v-650q0 -298 -87 -438t-267 -140h-25v226h20q63 0 90 87.5t27 264.5v878h604zM779 722v-496h23q37 0 64.5 21t44.5 55.5t25.5 80 t8.5 94.5q0 47 -9.5 91t-28.5 78.5t-47.5 55t-65.5 20.5h-15z" />
<glyph unicode="&#x40a;" d="M348 840h173v616h241v-518h7q90 0 161.5 -35t122 -97.5t77.5 -148t27 -187.5t-27 -188.5t-77.5 -149t-122 -97.5t-161.5 -35h-248v614h-173v-614h-257v1456h257v-616zM762 712v-484h15q39 0 66.5 20t45.5 54t26.5 78t8.5 92q0 46 -9.5 89.5t-29 77t-48.5 53.5t-68 20h-7z " />
<glyph unicode="&#x40b;" d="M1065 1228h-448v-350q108 -1 197 -27.5t152.5 -79t98.5 -132t35 -187.5v-452h-281v452q0 109 -50 153.5t-152 46.5v-652h-281v1228h-297v228h1026v-228z" />
<glyph unicode="&#x40c;" d="M565 598l-154 -169v-429h-282v1456h282v-667l132 178l354 489h344l-490 -644l508 -812h-334zM664 1811h306l-277 -279h-216z" />
<glyph unicode="&#x40d;" d="M805 1456h282v-1456h-282v929l-413 -929h-281v1456h281v-930zM703 1525h-219l-264 279h306z" />
<glyph unicode="&#x40e;" d="M532 956l95 -269l304 769h306l-518 -1180q-26 -59 -60.5 -113t-83 -95t-113.5 -65t-153 -24q-71 0 -125.5 11.5t-88.5 20.5l18 220q13 -4 31.5 -8.5t38.5 -8.5t41 -6.5t40 -2.5q48 0 84 10t62 28t43.5 43.5t28.5 57.5l28 62l-508 1050h304zM1006 1848q0 -65 -23.5 -119 t-68 -92.5t-107.5 -60t-141 -21.5q-79 0 -142 21.5t-107.5 60t-68 92.5t-23.5 119h200q0 -26 7.5 -50.5t24.5 -43t43.5 -29.5t65.5 -11q38 0 64.5 11t43 29.5t24 43t7.5 50.5h201z" />
<glyph unicode="&#x40f;" d="M109 1456h280v-1230h412v1230h282v-1456h-336v-360h-283v360h-355v1456z" />
<glyph unicode="&#x410;" d="M847 304h-437l-86 -304h-296l477 1456h255l468 -1456h-296zM479 543h302l-149 536z" />
<glyph unicode="&#x411;" d="M1074 1228h-661v-310h164q126 0 226.5 -32.5t170 -91.5t106.5 -143t37 -186q0 -104 -37 -189.5t-106.5 -146.5t-170 -95t-226.5 -34h-446v1456h943v-228zM413 692v-466h164q66 0 114.5 19t81 52t48 77t15.5 93q0 47 -15.5 88t-48 71.5t-81 48t-114.5 17.5h-164z" />
<glyph unicode="&#x412;" d="M129 0v1456h489q119 0 216.5 -24t166.5 -73t106.5 -124t37.5 -177q-1 -102 -54.5 -183t-157.5 -123q63 -16 109 -48t76.5 -75.5t45 -95t14.5 -106.5q0 -105 -36 -185t-103 -134t-163 -81t-216 -27h-531zM411 642v-415h250q115 1 175.5 56.5t60.5 145.5q1 100 -54 156 t-170 57h-262zM411 845h209q117 1 180 49t64 141q0 102 -63 146.5t-182 45.5h-208v-382z" />
<glyph unicode="&#x413;" d="M1083 1228h-661v-1228h-281v1456h942v-228z" />
<glyph unicode="&#x414;" d="M1119 -358h-242v358h-551v-358h-237l-44 584h54q46 24 80 67t57 116.5t37 183t20 267.5l40 596h719v-1230h107zM575 860q-5 -117 -14.5 -212t-24.5 -172.5t-35 -139t-44 -110.5h315v1002h-173z" />
<glyph unicode="&#x415;" d="M1027 638h-598v-411h699v-227h-981v1456h978v-229h-696v-367h598v-222z" />
<glyph unicode="&#x416;" d="M785 587h-52v-587h-246v587h-56l-143 -587h-296l246 774l-224 682h294l134 -615h45v615h246v-615h42l127 615h294l-219 -682l242 -774h-298z" />
<glyph unicode="&#x417;" d="M1150 1061q0 -50 -15.5 -96t-44.5 -86.5t-71 -73.5t-95 -57q121 -42 184.5 -127.5t63.5 -212.5q0 -102 -41.5 -182t-115 -134.5t-176 -83t-223.5 -28.5q-98 0 -194 24.5t-172.5 76t-124 131.5t-47.5 192h282q0 -42 18.5 -78t52.5 -63t81 -42.5t104 -15.5q66 0 117 15.5 t86 43.5t53 65.5t18 81.5q0 117 -65.5 169t-192.5 52h-196v220h196q63 0 107.5 14.5t73 41.5t42 64.5t13.5 83.5q0 39 -15 74.5t-46 61.5t-78.5 41.5t-112.5 15.5q-50 0 -93 -13t-74.5 -37t-50 -58t-18.5 -76h-281q0 96 41.5 172t112.5 129t164.5 81.5t198.5 28.5 q121 0 220 -26.5t168.5 -79t107.5 -130t38 -179.5z" />
<glyph unicode="&#x418;" d="M805 1456h282v-1456h-282v929l-413 -929h-281v1456h281v-930z" />
<glyph unicode="&#x419;" d="M805 1456h282v-1456h-282v929l-413 -929h-281v1456h281v-930zM932 1835q0 -65 -23.5 -119t-68 -92.5t-107.5 -60t-141 -21.5q-79 0 -142 21.5t-107.5 60t-68 92.5t-23.5 119h200q0 -26 7.5 -50.5t24.5 -43t43.5 -29.5t65.5 -11q38 0 64.5 11t43 29.5t24 43t7.5 50.5h201z " />
<glyph unicode="&#x41a;" d="M549 598h-117v-598h-281v1456h281v-641h69l381 641h325l-434 -701l451 -755h-326z" />
<glyph unicode="&#x41b;" d="M1103 1456v-1456h-282v1228h-301l-5 -534q-3 -191 -29.5 -323t-76.5 -214.5t-125 -119.5t-175 -37h-70v226h40q49 5 78.5 29.5t46 78t22.5 141t8 219.5l6 762h863z" />
<glyph unicode="&#x41c;" d="M476 1456l138 -547l157 547h349v-1456h-258v431l12 681l-191 -632h-139l-171 605l12 -654v-431h-258v1456h349z" />
<glyph unicode="&#x41d;" d="M1092 0h-278v631h-412v-631h-279v1456h279v-597h412v597h278v-1456z" />
<glyph unicode="&#x41e;" d="M1147 621q0 -140 -37 -258t-107 -203t-170.5 -132.5t-226.5 -47.5t-224 47.5t-165 133t-102 203t-35 257.5v212q0 140 35 258t102 203.5t164.5 133.5t223.5 48q127 0 227.5 -48t170.5 -133.5t107 -203.5t37 -258v-212zM862 835q0 89 -14.5 164t-45.5 129t-79.5 84.5 t-117.5 30.5q-68 0 -114 -30.5t-74 -84.5t-40 -129t-12 -164v-214q0 -88 12 -163t40 -130t74 -86t115 -31q68 0 116.5 31t79 85.5t45.5 129.5t15 164v214z" />
<glyph unicode="&#x41f;" d="M1095 0h-281v1228h-412v-1228h-281v1456h974v-1456z" />
<glyph unicode="&#x420;" d="M430 534v-534h-281v1456h498q119 0 215 -34.5t163.5 -96t104 -147.5t36.5 -191q0 -98 -36.5 -181t-104 -143.5t-163.5 -94.5t-215 -34h-217zM430 762h217q60 0 104 18t73.5 49t44 71.5t14.5 84.5q0 51 -14.5 95t-44 77t-73.5 52t-104 19h-217v-466z" />
<glyph unicode="&#x421;" d="M1142 456q-7 -110 -47.5 -198t-108.5 -150t-162 -95.5t-208 -33.5q-129 0 -229 47.5t-168 133t-104 205.5t-36 264v196q0 145 38 265t108 206t169.5 133.5t223.5 47.5q120 0 213.5 -34t159.5 -97t104 -154t48 -205h-280q-4 65 -19.5 114t-45 81.5t-74 49t-106.5 16.5 q-65 0 -113 -28t-79.5 -82t-46.5 -132.5t-15 -178.5v-198q0 -215 60.5 -318t191.5 -103q110 0 174 58.5t71 189.5h281z" />
<glyph unicode="&#x422;" d="M1201 1227h-449v-1227h-282v1227h-443v229h1174v-229z" />
<glyph unicode="&#x423;" d="M532 956l95 -269l304 769h306l-518 -1180q-26 -59 -60.5 -113t-83 -95t-113.5 -65t-153 -24q-71 0 -125.5 11.5t-88.5 20.5l18 220q13 -4 31.5 -8.5t38.5 -8.5t41 -6.5t40 -2.5q48 0 84 10t62 28t43.5 43.5t28.5 57.5l28 62l-508 1050h304z" />
<glyph unicode="&#x424;" d="M804 1260q102 -11 186 -54t144.5 -113t94 -164.5t33.5 -208.5q0 -112 -33.5 -204.5t-94 -161.5t-144.5 -111.5t-186 -53.5v-189h-280v189q-102 11 -186.5 53t-145 110.5t-94 161t-33.5 204.5q0 114 33.5 209t94 165.5t145 113.5t186.5 54v196h280v-196zM341 718 q0 -121 49 -192.5t134 -91.5v581q-85 -21 -134 -96t-49 -201zM984 720q0 125 -48 199.5t-132 95.5v-580q84 20 132 92t48 193z" />
<glyph unicode="&#x425;" d="M624 934l259 522h330l-410 -722l420 -734h-328l-267 530l-266 -530h-332l420 734l-409 722h328z" />
<glyph unicode="&#x426;" d="M109 1456h280v-1230h397v1230h282v-1231h189l-20 -576h-260v351h-868v1456z" />
<glyph unicode="&#x427;" d="M1119 1456v-1456h-282v555q-26 -7 -54 -12.5t-55.5 -9t-53 -5.5t-44.5 -2q-108 0 -195.5 27.5t-149 85.5t-95 148.5t-33.5 215.5v453h281v-453q0 -73 11.5 -121t35.5 -76.5t60 -40t85 -11.5q20 0 45 1.5t52.5 5t55.5 8.5t54 12v675h282z" />
<glyph unicode="&#x428;" d="M355 1456v-1230h140v1230h265v-1230h138v1230h273v-1456h-1090v1456h274z" />
<glyph unicode="&#x429;" d="M355 1456v-1230h140v1230h265v-1230h138v1230h273v-1233h129l-20 -573h-257v350h-942v1456h274z" />
<glyph unicode="&#x42a;" d="M51 1456h532v-584h89q118 0 209 -31.5t153 -89t94 -137.5t32 -177q0 -96 -32 -176.5t-94 -138.5t-153 -90t-209 -32h-370v1239h-251v217zM583 647v-423h89q56 0 95.5 16.5t64 45.5t36 68t11.5 85q0 44 -11.5 82t-36 66t-64 44t-95.5 16h-89z" />
<glyph unicode="&#x42b;" d="M355 864h63q91 0 161 -30.5t117.5 -86.5t72 -134.5t24.5 -175.5q0 -96 -26.5 -176.5t-78.5 -138.5t-128 -90t-175 -32h-311v1456h281v-592zM1152 0h-281v1456h281v-1456zM355 647v-431h46q30 0 51.5 17.5t35 48t19.5 71t6 86.5q0 44 -6 82t-19.5 66t-34.5 44t-52 16h-46z " />
<glyph unicode="&#x42c;" d="M413 918h164q126 0 226.5 -32.5t170 -91.5t106.5 -143t37 -186q0 -104 -37 -189.5t-106.5 -146.5t-170 -95t-226.5 -34h-446v1456h282v-538zM413 692v-466h164q66 0 114.5 19t81 52t48 77t15.5 93q0 47 -15.5 88t-48 71.5t-81 48t-114.5 17.5h-164z" />
<glyph unicode="&#x42d;" d="M316 484q-6 -66 10 -118t47.5 -88t75 -55t94.5 -19q60 0 109 20t83 64.5t52.5 114.5t18.5 171v39h-383v227h383v39q0 96 -17.5 166t-50 115.5t-79 67.5t-103.5 22q-61 0 -108.5 -19t-78.5 -55.5t-45 -89.5t-9 -120h-281q0 105 36.5 198t104.5 163t164.5 110.5t216.5 40.5 q117 0 214.5 -41.5t167.5 -118.5t109 -188.5t39 -250.5v-303q0 -140 -38 -250.5t-108.5 -187t-171 -117.5t-225.5 -41q-111 0 -205.5 34t-163 99t-105.5 158.5t-34 212.5h281z" />
<glyph unicode="&#x42e;" d="M1133 507q0 -263 -94.5 -395.5t-271.5 -132.5q-168 0 -256.5 132.5t-88.5 395.5v97h-89v-604h-249v1456h249v-635h89v128q0 263 88.5 395.5t256.5 132.5q177 0 271.5 -132.5t94.5 -395.5v-442zM876 983q0 75 -5 126.5t-17.5 83.5t-33.5 46t-53 14q-27 0 -45.5 -14 t-30 -46t-16.5 -83.5t-5 -126.5v-509q0 -76 5 -128t16.5 -84t30 -46t45.5 -14q32 0 53 14t33.5 46t17.5 84t5 128v509z" />
<glyph unicode="&#x42f;" d="M761 0v573h-225l-274 -573h-301l315 658q-116 57 -176.5 148.5t-60.5 221.5q0 105 37 185t106.5 134t168.5 81.5t222 27.5h470v-1456h-282zM320 1011q0 -114 63 -168.5t190 -54.5h188v440h-188q-130 0 -191.5 -57t-61.5 -160z" />
<glyph unicode="&#x430;" d="M817 0q-10 20 -17 46t-12 55q-23 -25 -53 -47t-66.5 -38.5t-80.5 -26t-95 -9.5q-83 0 -152.5 24t-119.5 67t-78 102.5t-28 129.5q0 171 127.5 264.5t380.5 93.5h155v64q0 78 -51 123.5t-147 45.5q-85 0 -124 -36.5t-39 -97.5h-278q0 69 30.5 131t89 109t143 74.5 t193.5 27.5q98 0 182.5 -24t146.5 -71t97 -118.5t35 -165.5v-464q0 -87 11 -144t32 -98v-17h-282zM552 195q42 0 78 10t65 26t50 36.5t33 41.5v186h-142q-65 0 -111 -12.5t-75 -35t-43 -54t-14 -68.5q0 -56 39.5 -93t119.5 -37z" />
<glyph unicode="&#x431;" d="M675 1022q109 0 193.5 -38.5t142.5 -106t88 -159.5t30 -200v-21q0 -112 -33.5 -207t-98 -164t-159 -108t-215.5 -39q-122 0 -216.5 42t-159.5 116t-98.5 175.5t-33.5 221.5v21v2v38q1 195 36 340t98.5 245t153.5 159t201 83q54 11 93 22t64.5 26t37.5 36t12 51h225 q0 -83 -21.5 -141t-68 -98.5t-118.5 -67.5t-174 -47q-61 -13 -111.5 -36.5t-89.5 -61.5t-66 -92t-41 -128q68 67 149 102t180 35zM621 797q-62 0 -105.5 -22.5t-70.5 -61t-39 -89t-12 -106.5v-21q0 -61 12 -115t39 -94t71 -63t107 -23q62 0 105.5 23t70.5 63t39.5 94 t12.5 115v21q0 56 -12.5 106.5t-39.5 89t-71 61t-107 22.5z" />
<glyph unicode="&#x432;" d="M138 0v1082h449q105 0 189.5 -18.5t144 -56t91 -94.5t31.5 -133q0 -75 -49 -134.5t-143 -91.5q62 -12 108 -36t76.5 -56t45.5 -71t15 -82q0 -77 -29.5 -135t-85.5 -96.5t-137.5 -58t-186.5 -19.5h-519zM416 451v-230h241q84 0 122.5 29t38.5 85q0 52 -37 84t-124 32h-241 zM416 640h186q85 2 124 28t39 76q0 61 -44.5 88t-133.5 27h-171v-219z" />
<glyph unicode="&#x433;" d="M1074 856h-654v-856h-277v1082h931v-226z" />
<glyph unicode="&#x434;" d="M145 224q57 13 87.5 57.5t45.5 110.5t18.5 149t5.5 175l6 366h786v-859h154l-20 -547h-258v324h-653v-324h-263l-21 548h112zM580 716q-8 -152 -25.5 -276t-55.5 -217h317v626h-234z" />
<glyph unicode="&#x435;" d="M666 -20q-125 0 -227 41t-175 111.5t-112.5 166t-39.5 204.5v40q0 124 39 226.5t109 176.5t166 115t209 41q117 0 208.5 -38.5t155 -108.5t96.5 -168.5t33 -217.5v-118h-734q8 -55 32.5 -100.5t62.5 -78.5t87 -51t107 -18q41 0 81.5 8t77.5 23.5t69 38.5t56 54l139 -150 q-26 -37 -67.5 -72.5t-98 -63t-125.5 -44.5t-149 -17zM633 877q-47 0 -86 -16.5t-68.5 -47.5t-49.5 -74t-30 -96h456v22q-2 44 -17 83t-43 67.5t-68.5 45t-93.5 16.5z" />
<glyph unicode="&#x436;" d="M781 409h-53v-409h-241v409h-52l-125 -409h-276l225 575l-217 507h280l124 -409h41v409h241v-409h43l124 409h281l-215 -501l227 -581h-281z" />
<glyph unicode="&#x437;" d="M1099 786q0 -72 -50.5 -132.5t-140.5 -96.5q102 -32 156 -95.5t54 -155.5q0 -77 -38.5 -137.5t-106.5 -102.5t-161.5 -64t-204.5 -22q-91 0 -179.5 20t-158 61.5t-112.5 105.5t-43 153h277q0 -26 15.5 -49.5t44.5 -41.5t72 -29t97 -11q55 0 96.5 11.5t69 30.5t41 43 t13.5 50q0 73 -57 104.5t-163 31.5h-204v185h204q104 0 152.5 33.5t48.5 86.5q0 23 -11 45.5t-35.5 40t-63 28.5t-92.5 11q-45 0 -83.5 -8t-67 -23.5t-44.5 -37.5t-16 -50h-277q0 77 37.5 138.5t102 104t151.5 65t185 22.5q110 0 201 -20.5t155.5 -60t100 -98.5t35.5 -136z " />
<glyph unicode="&#x438;" d="M806 1082h278v-1082h-278v690l-407 -690h-278v1082h278v-690z" />
<glyph unicode="&#x439;" d="M806 1082h278v-1082h-278v690l-407 -690h-278v1082h278v-690zM934 1526q0 -65 -23.5 -119t-68 -92.5t-107.5 -60t-141 -21.5q-79 0 -142 21.5t-107.5 60t-68 92.5t-23.5 119h200q0 -26 7.5 -50.5t24.5 -43t43.5 -29.5t65.5 -11q38 0 64.5 11t43 29.5t24 43t7.5 50.5h201z " />
<glyph unicode="&#x43a;" d="M574 405h-163v-405h-278v1082h278v-414h144l291 414h350l-397 -521l429 -561h-368z" />
<glyph unicode="&#x43b;" d="M1083 1082v-1082h-279v856h-294v-235q0 -155 -21.5 -271t-71 -194t-131 -117t-201.5 -39h-49l-2 229h33q53 0 85.5 21t50 68t23.5 121.5t5 181.5v461h852z" />
<glyph unicode="&#x43c;" d="M609 331l152 751h348v-1082h-246v603l-161 -603h-187l-156 588v-588h-246v1082h346z" />
<glyph unicode="&#x43d;" d="M1083 0h-279v420h-404v-420h-279v1082h279v-438h404v438h279v-1082z" />
<glyph unicode="&#x43e;" d="M103 551q0 118 34 218.5t99.5 174.5t160 116t216.5 42t217 -42t160.5 -116t99.5 -174.5t34 -218.5v-21q0 -119 -34 -219.5t-99 -174.5t-160 -115.5t-216 -41.5q-122 0 -217.5 41.5t-161 115.5t-99.5 174.5t-34 219.5v21zM381 530q0 -68 13 -127.5t41 -104t72.5 -70.5 t107.5 -26q61 0 105 26t71.5 70.5t40.5 104t13 127.5v21q0 66 -13 125t-40.5 104t-71.5 71t-107 26q-62 0 -106 -26t-72 -71t-41 -104t-13 -125v-21z" />
<glyph unicode="&#x43f;" d="M1084 0h-279v856h-405v-856h-279v1082h963v-1082z" />
<glyph unicode="&#x440;" d="M1113 531q0 -118 -27.5 -219t-81 -174.5t-132.5 -115.5t-181 -42q-87 0 -153 30t-115 84v-510h-278v1498h257l10 -106q50 60 118 93t159 33q103 0 182 -39.5t133 -112t81.5 -174t27.5 -224.5v-21zM835 552q0 68 -12.5 127.5t-39 103t-68 68.5t-100.5 25 q-73 0 -119.5 -28.5t-72.5 -80.5v-452q26 -51 72.5 -81.5t121.5 -30.5q59 0 100.5 26t67.5 71t38 104.5t12 126.5v21z" />
<glyph unicode="&#x441;" d="M620 202q41 0 78 12t65 34t43.5 53t13.5 69h262q2 -84 -34.5 -156t-99.5 -124t-146.5 -81.5t-176.5 -29.5q-126 0 -221 42.5t-158.5 116.5t-96 173.5t-32.5 213.5v30q0 114 32 213.5t96 173.5t158.5 117t219.5 43q100 0 185 -30t146.5 -84.5t95.5 -132t32 -173.5h-262 q2 40 -12 76t-41 62t-65 41.5t-83 15.5q-66 0 -109 -27t-68.5 -72t-36 -103t-10.5 -120v-30q0 -63 10 -121.5t35.5 -103t69 -71.5t110.5 -27z" />
<glyph unicode="&#x442;" d="M1202 859h-417v-859h-279v859h-413v223h1109v-223z" />
<glyph unicode="&#x443;" d="M602 454l32 -116l288 744h307l-549 -1244q-18 -41 -46.5 -89t-71.5 -89t-104.5 -69t-145.5 -28q-20 0 -37 1.5t-33 4t-31.5 6t-33.5 8.5l34 212q17 0 43.5 -1.5t42.5 -1.5q33 0 58.5 20t43.5 44t29 44t15 20l67 126l-458 1036h304z" />
<glyph unicode="&#x444;" d="M55 551q0 100 27.5 189t81 159.5t131 119t177.5 69.5v448h281v-448q101 -20 179 -68.5t131.5 -119t81.5 -159.5t28 -190v-21q0 -101 -28 -190t-81.5 -159.5t-132 -119t-178.5 -68.5v-409h-281v410q-100 21 -177.5 69.5t-131 118.5t-81 158.5t-27.5 189.5v21zM909 551 q0 48 -9 92.5t-28.5 83.5t-49 69.5t-69.5 50.5v-616q40 19 69.5 50t49 70t28.5 84.5t9 94.5v21zM320 530q0 -48 8.5 -93t27 -84t47.5 -69.5t69 -50.5v613q-40 -20 -68.5 -50.5t-47 -69t-27.5 -83t-9 -92.5v-21z" />
<glyph unicode="&#x445;" d="M636 744l238 338h299l-363 -531l376 -551h-300l-249 354l-247 -354h-301l376 551l-362 531h299z" />
<glyph unicode="&#x446;" d="M121 1082h279v-859h375v859h279v-860h158l-20 -543h-257v321h-814v1082z" />
<glyph unicode="&#x447;" d="M1121 0h-279v349q-52 -10 -106.5 -15.5t-105.5 -5.5q-117 0 -211 24.5t-159.5 75t-100.5 128.5t-35 186v340h278v-340q0 -54 13.5 -90.5t41.5 -58.5t71 -31.5t102 -9.5q56 0 108 5.5t104 16.5v508h279v-1082z" />
<glyph unicode="&#x448;" d="M353 1082v-859h133v859h262v-859h133v859h270v-1082h-1068v1082h270z" />
<glyph unicode="&#x449;" d="M349 1082v-859h133v859h262v-859h133v859h270v-860h112l-20 -543h-225v321h-935v1082h270z" />
<glyph unicode="&#x44a;" d="M600 689h139q106 0 188 -25t137.5 -69.5t84 -105t28.5 -132.5q0 -75 -28.5 -140t-84 -113t-137.5 -76t-188 -28h-420v865h-263v217h544v-393zM600 472v-256h139q43 0 73 12t48.5 31t26.5 42.5t8 47.5q0 21 -8 42.5t-26.5 39.5t-48.5 29.5t-73 11.5h-139z" />
<glyph unicode="&#x44b;" d="M364 697h41q98 0 170 -26.5t119.5 -72t70.5 -107.5t23 -134q0 -75 -23 -140t-70.5 -113t-119.5 -76t-170 -28h-306v1082h265v-385zM1148 0h-281v1082h281v-1082zM364 504v-288h41q46 0 72.5 12t40 31t17 42.5t3.5 47.5q0 26 -3.5 53.5t-17 50t-40 37t-72.5 14.5h-41z" />
<glyph unicode="&#x44c;" d="M416 718h273q109 0 195 -26.5t144.5 -74t89.5 -114t31 -146.5q0 -77 -31 -142.5t-89.5 -113t-144.5 -74.5t-195 -27h-551v1082h278v-364zM416 495v-273h273q49 0 83.5 11t56.5 29.5t32 42.5t10 51q0 28 -10 53.5t-32 44.5t-56.5 30t-83.5 11h-273z" />
<glyph unicode="&#x44d;" d="M587 877q-46 0 -85.5 -12t-68 -33.5t-45 -52.5t-16.5 -68h-261q0 84 37.5 155.5t102 124t151.5 82t185 29.5q132 0 230 -43t162.5 -117t96.5 -173.5t32 -213.5v-30q0 -114 -32 -213.5t-96.5 -173t-162 -116t-229.5 -42.5q-106 0 -193.5 29.5t-150.5 84t-98 131.5t-35 173 h261q0 -41 15 -76.5t43 -61.5t68 -41.5t90 -15.5q63 0 106.5 20.5t71 55.5t41.5 81t19 98h-322v174h321q-5 51 -19 95.5t-42 77.5t-71 52.5t-106 19.5z" />
<glyph unicode="&#x44e;" d="M343 629h83q3 102 28.5 188.5t72.5 149.5t116.5 99t161.5 36q96 0 167.5 -38.5t119.5 -106t71.5 -159.5t23.5 -199v-118q0 -107 -23.5 -199t-71 -159.5t-118.5 -105.5t-167 -38q-95 0 -165.5 34.5t-118 95t-72 142.5t-25.5 177h-83v-428h-289v1082h289v-453zM690 481 q0 -56 5.5 -107.5t18.5 -91.5t35.5 -63.5t57.5 -23.5q34 0 56.5 23.5t35.5 63.5t18 91.5t5 107.5v118q0 55 -5.5 106.5t-18.5 91.5t-36 64t-57 24t-56.5 -24t-35.5 -64t-18 -91.5t-5 -106.5v-118z" />
<glyph unicode="&#x44f;" d="M1105 1082v-1082h-278v379h-252l-214 -379h-284l240 426q-98 44 -150.5 121t-52.5 176q0 78 31.5 143.5t90.5 113.5t143.5 75t191.5 27h534zM392 715q0 -25 10.5 -50t31.5 -45t53 -32.5t76 -12.5h264v284h-256q-46 0 -79.5 -13t-55.5 -33.5t-33 -46t-11 -51.5z" />
<glyph unicode="&#x450;" d="M666 -20q-125 0 -227 41t-175 111.5t-112.5 166t-39.5 204.5v40q0 124 39 226.5t109 176.5t166 115t209 41q117 0 208.5 -38.5t155 -108.5t96.5 -168.5t33 -217.5v-118h-734q8 -55 32.5 -100.5t62.5 -78.5t87 -51t107 -18q41 0 81.5 8t77.5 23.5t69 38.5t56 54l139 -150 q-26 -37 -67.5 -72.5t-98 -63t-125.5 -44.5t-149 -17zM633 877q-47 0 -86 -16.5t-68.5 -47.5t-49.5 -74t-30 -96h456v22q-2 44 -17 83t-43 67.5t-68.5 45t-93.5 16.5zM714 1226h-219l-264 279h306z" />
<glyph unicode="&#x451;" d="M666 -20q-125 0 -227 41t-175 111.5t-112.5 166t-39.5 204.5v40q0 124 39 226.5t109 176.5t166 115t209 41q117 0 208.5 -38.5t155 -108.5t96.5 -168.5t33 -217.5v-118h-734q8 -55 32.5 -100.5t62.5 -78.5t87 -51t107 -18q41 0 81.5 8t77.5 23.5t69 38.5t56 54l139 -150 q-26 -37 -67.5 -72.5t-98 -63t-125.5 -44.5t-149 -17zM633 877q-47 0 -86 -16.5t-68.5 -47.5t-49.5 -74t-30 -96h456v22q-2 44 -17 83t-43 67.5t-68.5 45t-93.5 16.5zM220 1393q0 26 10 49t28 40t43 26.5t55 9.5t55 -9.5t43 -26.5t28 -40t10 -49t-10 -49t-28 -39.5t-43 -26 t-55 -9.5t-55 9.5t-43 26t-28 39.5t-10 49zM700 1393q0 26 10 49t28 39.5t43 26t55 9.5t55 -9.5t43 -26t28 -39.5t10 -49q0 -27 -10 -50t-28 -40t-43 -26.5t-55 -9.5t-55 9.5t-43 26.5t-28 40t-10 50z" />
<glyph unicode="&#x452;" d="M642 1190h-233v-257q54 79 131.5 124t173.5 45q85 0 156 -25.5t122 -79.5t79.5 -138.5t28.5 -203.5v-186h1v-511q0 -96 -25.5 -169.5t-73.5 -123.5t-117.5 -76t-156.5 -26q-38 0 -70.5 3.5t-69.5 13.5l14 219q22 -6 48 -9t52 -3q58 0 89.5 44t31.5 127v42h-1v657 q0 58 -14.5 100t-41.5 68t-65 38.5t-86 12.5q-70 0 -121.5 -25t-84.5 -70v-781h-278v1190h-181v180h181v166h278v-166h233v-180z" />
<glyph unicode="&#x453;" d="M1074 856h-654v-856h-277v1082h931v-226zM686 1492h306l-277 -279h-216z" />
<glyph unicode="&#x454;" d="M610 202q41 0 78 12t65 34t43.5 53t13.5 69h262q2 -84 -34.5 -156t-99.5 -124t-146.5 -81.5t-176.5 -29.5q-126 0 -221 42.5t-158.5 116.5t-96 173.5t-32.5 213.5v30q0 114 32 213.5t96 173.5t158.5 117t219.5 43q100 0 185 -30t146.5 -84.5t95.5 -132t32 -173.5h-262 q2 40 -12 76t-41 62t-65 41.5t-83 15.5q-57 0 -97.5 -21t-66.5 -56.5t-40 -82.5t-18 -99h319v-176h-317q6 -50 20 -93.5t40.5 -76t65.5 -51.5t95 -19z" />
<glyph unicode="&#x455;" d="M839 297q0 25 -11.5 44t-41 35.5t-78.5 30.5t-124 28q-95 19 -173.5 47.5t-134.5 69t-87.5 93.5t-31.5 122q0 67 32 128t92 107t146 73t194 27q113 0 203 -26.5t152.5 -73t95.5 -110.5t33 -139h-278q0 63 -51 105.5t-155 42.5q-97 0 -146.5 -35t-49.5 -86q0 -24 10 -44.5 t35.5 -37t69.5 -30t112 -23.5q98 -16 182 -41t145 -64.5t95.5 -96t34.5 -134.5q0 -72 -34.5 -132.5t-98 -104.5t-153.5 -68.5t-201 -24.5q-122 0 -215.5 32t-156.5 83.5t-95.5 117t-32.5 131.5h265q3 -44 24 -75.5t54 -51t75.5 -28.5t87.5 -9q103 0 157 33t54 85z" />
<glyph unicode="&#x456;" d="M215 1082h589v-856h293v-226h-882v226h308v629h-308v227zM503 1359q0 32 11.5 59.5t32.5 47t50.5 30.5t65.5 11q74 0 117.5 -41.5t43.5 -106.5t-43.5 -106.5t-117.5 -41.5q-36 0 -65.5 11t-50.5 30.5t-32.5 47t-11.5 59.5z" />
<glyph unicode="&#x457;" d="M199 1082h605v-856h310v-226h-915v226h324v629h-324v227zM285 1366q0 26 10 49t28 40t43 26.5t55 9.5t55 -9.5t43 -26.5t28 -40t10 -49t-10 -49t-28 -39.5t-43 -26t-55 -9.5t-55 9.5t-43 26t-28 39.5t-10 49zM765 1366q0 26 10 49t28 39.5t43 26t55 9.5t55 -9.5t43 -26 t28 -39.5t10 -49q0 -27 -10 -50t-28 -40t-43 -26.5t-55 -9.5t-55 9.5t-43 26.5t-28 40t-10 50z" />
<glyph unicode="&#x458;" d="M307 1082h554v-1107q0 -108 -31 -185.5t-90 -128t-144 -74.5t-194 -24q-45 0 -91 3.5t-88 13.5l14 226q12 -3 33.5 -5.5t44 -4t43 -2t30.5 -0.5q40 0 75.5 9t61 30t40.5 55.5t15 86.5v880h-273v227zM561 1359q0 32 11.5 59.5t32 47t50 30.5t65.5 11q74 0 117.5 -41.5 t43.5 -106.5t-43.5 -106.5t-117.5 -41.5q-36 0 -65.5 11t-50 30.5t-32 47t-11.5 59.5z" />
<glyph unicode="&#x459;" d="M826 1082v-351q97 -1 174 -28.5t129.5 -75.5t80.5 -114.5t28 -145.5q0 -80 -28 -147.5t-82 -116.5t-132 -76t-177 -27h-264v856h-111v-235q0 -155 -21 -271t-67 -194t-118.5 -117t-175.5 -39h-39l-2 241h23q67 0 101.5 93t34.5 287v461h646zM960 369q0 27 -7.5 51.5 t-24 43.5t-41.5 31t-61 13v-287q36 1 61 14t41.5 33t24 46.5t7.5 54.5z" />
<glyph unicode="&#x45a;" d="M370 665h123v417h279v-351h12q95 0 169 -27t125 -75t78 -115t27 -147t-27 -147.5t-78 -116.5t-125 -76t-169 -27h-291v442h-123v-442h-279v1082h279v-417zM772 508v-287h12q33 0 56 12.5t37.5 33t21 47t6.5 55.5q0 28 -6.5 53t-21 44t-37.5 30.5t-56 11.5h-12z" />
<glyph unicode="&#x45b;" d="M685 1201h-266v-268q54 79 131.5 124t173.5 45q85 0 156 -25.5t122 -79.5t79.5 -138.5t28.5 -203.5v-655h-278v657q0 58 -14.5 100t-41.5 68t-65 38.5t-86 12.5q-70 0 -121.5 -25t-84.5 -70v-781h-278v1201h-148v180h148v155h278v-155h266v-180z" />
<glyph unicode="&#x45c;" d="M574 405h-163v-405h-278v1082h278v-414h144l291 414h350l-397 -521l429 -561h-368zM644 1492h306l-277 -279h-216z" />
<glyph unicode="&#x45d;" d="M806 1082h278v-1082h-278v690l-407 -690h-278v1082h278v-690zM705 1216h-219l-264 279h306z" />
<glyph unicode="&#x45e;" d="M602 454l32 -116l288 744h307l-549 -1244q-18 -41 -46.5 -89t-71.5 -89t-104.5 -69t-145.5 -28q-20 0 -37 1.5t-33 4t-31.5 6t-33.5 8.5l34 212q17 0 43.5 -1.5t42.5 -1.5q33 0 58.5 20t43.5 44t29 44t15 20l67 126l-458 1036h304zM987 1514q0 -65 -23.5 -119t-68 -92.5 t-107.5 -60t-141 -21.5q-79 0 -142 21.5t-107.5 60t-68 92.5t-23.5 119h200q0 -26 7.5 -50.5t24.5 -43t43.5 -29.5t65.5 -11q38 0 64.5 11t43 29.5t24 43t7.5 50.5h201z" />
<glyph unicode="&#x45f;" d="M400 1082v-859h405v859h279v-1082h-342v-358h-278v358h-343v1082h279z" />
<glyph unicode="&#x460;" d="M1191 1456v-1087q0 -96 -25 -169t-70 -122t-106 -74t-133 -25t-129.5 31.5t-95.5 94.5q-37 -63 -91.5 -94.5t-121.5 -31.5q-75 0 -139 25t-110.5 74t-72.5 122t-26 169v1087h259v-1087q0 -87 23.5 -125.5t65.5 -38.5q38 0 60 38.5t22 125.5v1087h260v-1087 q0 -87 25.5 -125.5t70.5 -38.5q35 0 54.5 38.5t19.5 125.5v1087h260z" />
<glyph unicode="&#x461;" d="M1165 1082v-689q0 -102 -23.5 -179.5t-66.5 -129.5t-102 -78.5t-130 -26.5q-73 0 -130 34t-94 102q-36 -68 -91.5 -102t-124.5 -34q-73 0 -134.5 26.5t-105.5 78.5t-69 129.5t-25 179.5v689h253v-689q0 -100 21 -145.5t60 -45.5q45 0 66 45.5t21 145.5v689h259v-689 q0 -100 23 -145.5t71 -45.5q35 0 52 45.5t17 145.5v689h253z" />
<glyph unicode="&#x462;" d="M647 1090h-234v-172h164q126 0 226.5 -32.5t170 -91.5t106.5 -143t37 -186q0 -104 -37 -189.5t-106.5 -146.5t-170 -95t-226.5 -34h-446v1090h-176v180h176v186h282v-186h234v-180zM413 692v-466h164q66 0 114.5 19t81 52t48 77t15.5 93q0 47 -15.5 88t-48 71.5t-81 48 t-114.5 17.5h-164z" />
<glyph unicode="&#x463;" d="M741 1076h-265v-371h213q109 0 194.5 -26t144 -72.5t89 -111t30.5 -141.5q0 -78 -30.5 -143t-89 -112t-144 -73t-194.5 -26h-492v1076h-162v180h162v306h279v-306h265v-180zM476 482v-260h213q49 0 83.5 10.5t56 28t31.5 41.5t10 51q0 26 -10 49.5t-31.5 41t-56 28 t-83.5 10.5h-213z" />
<glyph unicode="&#x464;" d="M317 861h102q1 75 9.5 149.5t27 143t48.5 127.5t73.5 102.5t101.5 68t134 24.5t147 -25.5t124.5 -84.5t83 -155t21.5 -237h-249q0 54 -4.5 99.5t-18 79t-38.5 52.5t-66 19q-33 0 -54.5 -18.5t-35.5 -48t-21.5 -68t-10.5 -78.5t-3.5 -79.5t-0.5 -70.5h213v-241h-213v-14 v-72.5t2.5 -82t9.5 -81t21 -70.5t37 -49.5t58 -18.5q39 0 62 20t35 53.5t17 77t9 89.5h250q1 -136 -29.5 -230t-82 -152t-120 -83.5t-141.5 -25.5q-78 0 -137.5 25t-103 68.5t-73 103.5t-48 129.5t-26.5 145.5t-8 153v14h-102v-620h-261v1456h261v-595z" />
<glyph unicode="&#x465;" d="M899 453h-182q0 -36 4 -77t15.5 -75.5t33.5 -57.5t59 -23q48 0 72.5 32.5t29.5 94.5h253q-3 -93 -33.5 -162t-78.5 -114.5t-110 -68t-129 -22.5q-100 0 -173 38t-121.5 103t-73.5 151t-29 181h-92v-453h-267v1083h267v-445h92q5 94 30.5 179t73.5 149t120.5 101.5 t171.5 37.5q75 0 138.5 -21t111 -68t74.5 -122.5t28 -184.5h-253q-2 38 -8 66.5t-17.5 48t-30.5 30t-47 10.5q-35 0 -56.5 -21.5t-33 -55.5t-16 -73.5t-5.5 -75.5h182v-185z" />
<glyph unicode="&#x466;" d="M857 422h-94v-422h-240v422h-83l-134 -422h-293l494 1456h285l492 -1456h-293zM503 623h291l-145 459z" />
<glyph unicode="&#x467;" d="M824 271h-91v-271h-192v271h-85l-95 -271h-284l423 1082h281l424 -1082h-284zM521 455h237l-90 253l-28 111l-29 -111z" />
<glyph unicode="&#x468;" d="M906 440h-42v-440h-159v440h-44l-88 -440h-228l102 440h-140v-440h-225v1456h225v-821h186l191 821h220l310 -1456h-229zM700 635h172l-81 457z" />
<glyph unicode="&#x469;" d="M919 260h-47v-260h-169v260h-56l-74 -260h-228l81 260h-119v-260h-225v1082h225v-627h180l197 627h220l310 -1082h-229zM703 455h166l-78 306z" />
<glyph unicode="&#x46a;" d="M865 781q82 -6 147 -30.5t109.5 -70t68 -114.5t23.5 -164v-402h-281v402q0 44 -8 73.5t-24 47t-40.5 25t-57.5 7.5h-21v-555h-280v555h-45q-33 0 -57.5 -7.5t-40 -25t-23.5 -47t-8 -73.5v-402h-281v402q0 98 25 168.5t72 116t115.5 69t155.5 27.5l-326 673h1074zM640 884 l127 342h-272z" />
<glyph unicode="&#x46b;" d="M65 0v238q0 89 20 155t57.5 110.5t92 70t124.5 33.5l-275 475h1050l-277 -477q66 -10 118.5 -36t88.5 -70.5t55 -109t19 -151.5v-238h-279v238q0 46 -5.5 77t-17.5 49.5t-30 26t-43 7.5h-18v-398h-278v398h-28q-24 0 -42 -7.5t-30 -26t-18 -49.5t-6 -77v-238h-278z M609 625l131 269h-262z" />
<glyph unicode="&#x46c;" d="M365 0l-8 435q0 91 22 160h-102v-595h-223v1456h223v-660h352l-226 660h790l-227 -664q66 -8 115.5 -36t81.5 -74t48.5 -108.5t16.5 -138.5l-4 -435h-215l-8 435q0 30 -2.5 57.5t-11.5 49t-25.5 34.5t-44.5 13h-14v-589h-211v589h-25q-27 0 -44.5 -13t-27.5 -34.5 t-13.5 -49t-3.5 -57.5l-3 -435h-210zM799 970l86 279h-174z" />
<glyph unicode="&#x46d;" d="M386 0l-6 261q0 44 5.5 82.5t16.5 71.5h-118v-415h-224v1082h224v-478h337l-198 478h767l-200 -485q115 -21 173.5 -106.5t58.5 -229.5l-6 -261h-212l-7 261q0 29 -3 55.5t-12 47.5t-25.5 33.5t-42.5 12.5h-1l-3 -7v-403h-212v410h-10q-26 0 -42 -12.5t-25 -33.5 t-12.5 -47.5t-3.5 -55.5l-6 -261h-213zM807 686l82 225h-163z" />
<glyph unicode="&#x46e;" d="M522 862q62 0 106 14t72 39.5t41 60t13 75.5q0 78 -57 126.5t-179 48.5h-266v230h266q115 0 210 -23t163 -70t105 -119t37 -169q0 -120 -61 -202t-170 -126q133 -42 202.5 -127.5t69.5 -211.5q0 -102 -36 -182t-102 -135t-158 -83.5t-204 -28.5h-56q-64 0 -91 -27 t-27 -69q0 -35 15 -61t37.5 -45t48 -32t45.5 -22l-82 -171q-152 36 -234.5 131.5t-84.5 235.5q0 74 25 129t71 91t112 53.5t147 17.5h60q56 0 100 14.5t74 40.5t46 61.5t16 77.5q0 112 -71.5 169t-209.5 57h-143v232h150zM532 1782l147 126h237v-19l-296 -253h-175l-296 252 v20h237z" />
<glyph unicode="&#x46f;" d="M552 626q52 0 88.5 10t59.5 28t33.5 42.5t10.5 53.5q0 52 -50.5 85t-158.5 33h-266v204h266q109 0 199 -18t154 -55t99 -93.5t35 -132.5q0 -86 -47.5 -146.5t-132.5 -95.5q108 -32 164.5 -92t56.5 -145q0 -77 -33 -137.5t-93.5 -102t-145 -63.5t-187.5 -22h-49 q-71 0 -101.5 -27t-30.5 -69q0 -35 14 -61t34.5 -45t44 -32t41.5 -22l-82 -157q-60 20 -113 53t-93 78t-63.5 101t-24.5 121q0 67 23.5 117t66.5 82.5t104 48.5t136 16h53q106 0 164 36.5t58 93.5q0 67 -61.5 101.5t-178.5 34.5h-157v177h163zM585 1400l147 126h237v-19 l-296 -253h-175l-296 252v20h237z" />
<glyph unicode="&#x470;" d="M807 575q76 22 115 96.5t39 218.5v566h282v-566q0 -126 -31 -222t-88 -163.5t-137.5 -107.5t-179.5 -52v-345h-280v344q-104 10 -188.5 48.5t-144.5 106.5t-92.5 165.5t-32.5 225.5v566h281v-566q0 -144 46.5 -218.5t130.5 -96.5v881h280v-881z" />
<glyph unicode="&#x471;" d="M784 1082v-855q50 21 85 56.5t56.5 83t31 104.5t9.5 120q-1 127 -21.5 250t-49.5 241h261q35 -89 61.5 -211t26.5 -280q0 -108 -24 -208t-78 -181.5t-142 -137.5t-216 -75v-467h-278v469q-101 18 -182 62t-137.5 117.5t-87 177.5t-30.5 242v492h280v-495q0 -77 11.5 -136 t32 -102.5t49.5 -72.5t64 -46v852h278z" />
<glyph unicode="&#x472;" d="M1145 621q0 -140 -37 -258t-107 -203t-170.5 -132.5t-226.5 -47.5t-224 47.5t-165 133t-102 203t-35 257.5v212q0 140 35 258t102 203.5t164.5 133.5t223.5 48q127 0 227.5 -48t170.5 -133.5t107 -203.5t37 -258v-212zM860 647h-497v-26q0 -88 12 -163t40 -130t74 -86 t115 -31q68 0 116.5 31t79 85.5t45.5 129.5t15 164v26zM363 827h497v8q0 89 -14.5 164t-45.5 129t-79.5 84.5t-117.5 30.5q-68 0 -114 -30.5t-74 -84.5t-40 -129t-12 -164v-8z" />
<glyph unicode="&#x473;" d="M97 551q0 118 34 218.5t99.5 174.5t160 116t216.5 42t217 -42t160.5 -116t99.5 -174.5t34 -218.5v-21q0 -119 -34 -219.5t-99 -174.5t-160 -115.5t-216 -41.5q-122 0 -217.5 41.5t-161 115.5t-99.5 174.5t-34 219.5v21zM607 877q-53 0 -93 -19.5t-68 -53t-44.5 -79.5 t-22.5 -99h455q-6 53 -22.5 99t-44 79.5t-67.5 53t-93 19.5zM609 202q52 0 91 18.5t66.5 51t44 77t23.5 97.5h-454q7 -53 23.5 -97.5t44.5 -77t68 -51t93 -18.5z" />
<glyph unicode="&#x474;" d="M627 395l21 -96l20 91l212 738q26 84 59 148.5t76.5 108.5t99 66.5t127.5 22.5l41 -1l-2 -244h-27q-44 0 -74 -32t-47 -86l-337 -1111h-295l-489 1456h306z" />
<glyph unicode="&#x475;" d="M545 401l20 -106l20 106l120 377q48 159 128.5 241.5t203.5 82.5q29 0 55 -3.5t49 -16.5l-24 -220q-4 2 -20 3t-28 1q-38 0 -68 -29.5t-42 -71.5l-262 -765h-260l-383 1082h291z" />
<glyph unicode="&#x476;" d="M627 395l21 -96l20 91l212 738q26 84 59 148.5t76.5 108.5t99 66.5t127.5 22.5l41 -1l-2 -244h-27q-44 0 -74 -32t-47 -86l-337 -1111h-295l-489 1456h306zM604 1638h-232l-293 266h280zM934 1638h-224l-245 266h273z" />
<glyph unicode="&#x477;" d="M545 401l20 -106l20 106l120 377q48 159 128.5 241.5t203.5 82.5q29 0 55 -3.5t49 -16.5l-24 -220q-4 2 -20 3t-28 1q-38 0 -68 -29.5t-42 -71.5l-262 -765h-260l-383 1082h291zM569 1333h-232l-293 266h280zM899 1333h-224l-245 266h273z" />
<glyph unicode="&#x478;" d="M661 477q0 -113 -20.5 -205t-60 -157t-97 -100.5t-131.5 -35.5q-69 0 -122 35.5t-89 100.5t-54 157t-18 205v502q0 113 18.5 205t54 157t88.5 100.5t122 35.5q73 0 130.5 -35.5t97.5 -100.5t60.5 -157t20.5 -205v-502zM927 676l17 -174l95 580h176l-234 -1250 q-9 -38 -25 -83.5t-44 -85.5t-69 -67t-99 -27q-10 0 -23.5 1.5t-27 4t-25.5 5.5t-19 5l4 152q6 0 15.5 -1t20 -2t20.5 -1.5t15 -0.5q29 0 48.5 21t32.5 50t20 59.5t12 48.5l21 82l-152 1089h176zM461 1021q0 138 -25 213.5t-84 75.5q-29 0 -49 -19.5t-32 -56.5t-17 -90.5 t-5 -122.5v-584q0 -139 22.5 -215t80.5 -76q59 0 84 76t25 215v584z" />
<glyph unicode="&#x479;" d="M52 551q0 117 19 218t59.5 175t103 116t149.5 42q88 0 151 -42t103.5 -116t60 -175t19.5 -218v-21q0 -117 -19.5 -218t-60 -175t-103 -116t-149.5 -42t-150 42t-103.5 116t-60 175t-19.5 218v21zM927 676l17 -177l95 583h176l-234 -1250q-9 -38 -25 -83.5t-44 -85.5 t-69 -67t-99 -27q-10 0 -23.5 1.5t-27 4t-25.5 5.5t-19 5l4 152q6 0 15.5 -1t20 -2t20.5 -1.5t15 -0.5q29 0 48.5 21t32.5 50t20 59.5t12 48.5l21 82l-152 1089h176zM252 530q0 -79 4.5 -150t18.5 -124.5t40 -85t70 -31.5q43 0 69 31.5t40 85t18.5 124.5t4.5 150v21 q0 78 -4.5 149t-19 125t-41 85.5t-69.5 31.5t-68.5 -31.5t-39.5 -85.5t-18.5 -125t-4.5 -149v-21z" />
<glyph unicode="&#x47a;" d="M710 1124h-196v453h196v-453zM712 -136h-196v464h196v-464zM1147 621q0 -140 -37 -258t-107 -203t-170.5 -132.5t-226.5 -47.5t-224 47.5t-165 133t-102 203t-35 257.5v212q0 140 35 258t102 203.5t164.5 133.5t223.5 48q127 0 227.5 -48t170.5 -133.5t107 -203.5 t37 -258v-212zM862 835q0 89 -14.5 164t-45.5 129t-79.5 84.5t-117.5 30.5q-68 0 -114 -30.5t-74 -84.5t-40 -129t-12 -164v-214q0 -88 12 -163t40 -130t74 -86t115 -31q68 0 116.5 31t79 85.5t45.5 129.5t15 164v214z" />
<glyph unicode="&#x47b;" d="M698 764h-170v459h170v-459zM694 -147h-171v477h171v-477zM104 551q0 118 34 218.5t99.5 174.5t160 116t216.5 42t217 -42t160.5 -116t99.5 -174.5t34 -218.5v-21q0 -119 -34 -219.5t-99 -174.5t-160 -115.5t-216 -41.5q-122 0 -217.5 41.5t-161 115.5t-99.5 174.5 t-34 219.5v21zM382 530q0 -68 13 -127.5t41 -104t72.5 -70.5t107.5 -26q61 0 105 26t71.5 70.5t40.5 104t13 127.5v21q0 66 -13 125t-40.5 104t-71.5 71t-107 26q-62 0 -106 -26t-72 -71t-41 -104t-13 -125v-21z" />
<glyph unicode="&#x47c;" d="M846 1456q94 0 174 -27.5t138.5 -81t91.5 -133t33 -184.5v-667q0 -95 -30 -167t-83 -120t-125.5 -72.5t-158.5 -24.5q-69 0 -125.5 28t-96.5 84q-40 -56 -96 -84t-124 -28q-86 0 -159 24.5t-126 72.5t-82.5 120t-29.5 167v667q0 105 33 184.5t91 133t138 81t175 27.5 v-228q-72 0 -114.5 -47.5t-42.5 -150.5v-667q0 -83 31.5 -120.5t85.5 -37.5q42 0 64.5 38.5t22.5 125.5v447h268v-447q0 -87 22.5 -125.5t64.5 -38.5q52 0 84 37.5t32 120.5v667q0 103 -43 150.5t-113 47.5v228zM1050 1714v-134h-23q-74 0 -136 18.5t-114 41t-95.5 41.5 t-79.5 19q-46 0 -74.5 -24t-28.5 -78v-18h-133v37q0 112 62 164.5t171 52.5q50 0 98 -19t99 -41.5t107.5 -41t124.5 -18.5h22zM543 1341q33 42 50.5 77.5t17.5 73.5v95h149v-102q0 -29 -11.5 -59t-30.5 -57t-43.5 -49.5t-49.5 -35.5z" />
<glyph unicode="&#x47d;" d="M806 1102q73 0 140.5 -24t119 -72.5t82 -122t30.5 -171.5v-383q0 -89 -27.5 -154.5t-74 -109t-106.5 -65t-124 -21.5q-72 0 -129 39t-91 112q-34 -73 -90.5 -112t-128.5 -39q-65 0 -125 21.5t-106.5 65t-74 109t-27.5 154.5v383q0 98 30.5 171.5t82.5 122t119 72.5 t141 24v-193q-30 0 -52 -9t-36.5 -31t-21 -60.5t-6.5 -96.5v-359q0 -81 19.5 -119.5t63.5 -38.5q25 0 43.5 5.5t29.5 20.5t16.5 42t5.5 70v244h234v-244q0 -43 6.5 -70t19.5 -42t32 -20.5t45 -5.5q43 0 59 38.5t16 119.5v359q0 58 -6.5 96.5t-21 60.5t-36 31t-51.5 9v193z M1009 1382v-134h-45q-75 0 -135.5 18.5t-110 41t-90.5 41.5t-78 19q-47 0 -76 -24t-29 -78v-18h-136v37q0 112 63 164.5t174 52.5q34 0 65.5 -9t63 -22t63.5 -29t67.5 -29t75 -22t85.5 -9h43zM519 1002q33 42 50.5 77.5t17.5 73.5v95h149v-102q0 -29 -11.5 -59t-30.5 -57 t-43.5 -49.5t-49.5 -35.5z" />
<glyph unicode="&#x47e;" d="M263 1799h744v-112h-290v-127h-181v127h-273v112zM1197 1456v-1087q0 -96 -25 -169t-70 -122t-106 -74t-133 -25t-129.5 31.5t-95.5 94.5q-37 -63 -91.5 -94.5t-121.5 -31.5q-75 0 -139 25t-110.5 74t-72.5 122t-26 169v1087h259v-1087q0 -87 23.5 -125.5t65.5 -38.5 q38 0 60 38.5t22 125.5v1087h260v-1087q0 -87 25.5 -125.5t70.5 -38.5q35 0 54.5 38.5t19.5 125.5v1087h260z" />
<glyph unicode="&#x47f;" d="M259 1457h744v-112h-290v-127h-181v127h-273v112zM1165 1082v-689q0 -102 -23.5 -179.5t-66.5 -129.5t-102 -78.5t-130 -26.5q-73 0 -130 34t-94 102q-36 -68 -91.5 -102t-124.5 -34q-73 0 -134.5 26.5t-105.5 78.5t-69 129.5t-25 179.5v689h253v-689q0 -100 21 -145.5 t60 -45.5q45 0 66 45.5t21 145.5v689h259v-689q0 -100 23 -145.5t71 -45.5q35 0 52 45.5t17 145.5v689h253z" />
<glyph unicode="&#x480;" d="M866 -365h-281v352q-106 16 -191 66.5t-145 128.5t-92 179.5t-32 220.5v290q0 132 35.5 243.5t101 191.5t158 125t206.5 45q115 0 204.5 -33t151.5 -97t94.5 -158t32.5 -216h-281q0 140 -47 208t-155 68q-55 0 -96.5 -28t-69 -78.5t-41.5 -119t-14 -149.5v-292 q0 -81 18 -150t53.5 -119.5t88 -79t121.5 -28.5h180v-570z" />
<glyph unicode="&#x481;" d="M851 -367h-278v355q-98 17 -172 65t-123.5 119t-75 161t-25.5 192v30q0 114 32 213.5t94.5 173.5t155 117t214.5 43q97 0 178.5 -30t139.5 -84.5t90.5 -132t32.5 -173.5h-262q0 40 -12 76t-35 62t-56.5 41.5t-75.5 15.5q-62 0 -103.5 -27t-67 -72t-36.5 -103t-11 -120 v-30q0 -63 10.5 -121.5t36 -103t68 -71.5t105.5 -27h176v-569z" />
<glyph unicode="&#x482;" d="M601 449l289 -172l-72 -128l-291 170l-181 -319h-175l225 398l-289 171l71 128l293 -171l202 360l-290 171l73 130l291 -171l185 326h172l-228 -405l293 -171l-76 -127l-288 170z" />
<glyph unicode="&#x483;" horiz-adv-x="0" d="M-551 1312v-126l-178 1l1 238h546l-1 108l177 -1v-220h-545z" />
<glyph unicode="&#x484;" horiz-adv-x="0" d="M-726 1437q48 0 91.5 9t83.5 22t78 29t75 29t74 22t77 9q120 0 180.5 -52t58.5 -165l-1 -37h-136v18q0 54 -29.5 78t-76.5 24q-43 0 -92 -19t-107 -41.5t-126 -41t-148 -18.5h-47l-2 134h47z" />
<glyph unicode="&#x485;" horiz-adv-x="0" d="M-521 1505l-1 122l190 -5l-1 -122l58 -115l-82 -86z" />
<glyph unicode="&#x486;" horiz-adv-x="0" d="M-475 1299l-81 86l59 115l-1 122l189 5l1 -122z" />
<glyph unicode="&#x488;" horiz-adv-x="0" d="M-660 1267q0 41 14.5 75.5t41.5 59.5t66 39t88 14t88 -14t66.5 -39t42 -59.5t14.5 -75.5h-112q0 20 -5.5 38t-17 32t-30.5 22.5t-46 8.5t-45.5 -8.5t-30 -22.5t-16.5 -32t-5 -38h-113zM-69 990q0 41 14.5 75.5t41.5 59.5t66 39t87 14q49 0 88.5 -14t67 -39t42 -59.5 t14.5 -75.5h-113q0 20 -5 38t-17 32t-31 22.5t-46 8.5q-26 0 -44.5 -8.5t-30 -22.5t-16.5 -32t-5 -38h-113zM117 487q0 41 14.5 75.5t42 59.5t66.5 39t87 14q49 0 88 -14t66.5 -39t42 -59.5t14.5 -75.5h-112q0 20 -5 38t-17 32t-31 22.5t-46 8.5q-26 0 -44.5 -8.5t-30 -22.5 t-17 -32t-5.5 -38h-113zM-79 -32q0 41 14.5 75.5t41.5 59.5t66 39t87 14q49 0 88 -14t66.5 -39t42 -59.5t14.5 -75.5h-112q0 20 -5 38t-17 32t-31 22.5t-46 8.5q-26 0 -44.5 -8.5t-30 -22.5t-17 -32t-5.5 -38h-112zM-655 -316q0 41 14.5 75.5t41.5 59.5t66 39t88 14t88 -14 t66.5 -39t42 -59.5t14.5 -75.5h-112q0 20 -5.5 38t-17 32t-30.5 22.5t-46 8.5q-26 0 -44.5 -8.5t-30 -22.5t-17 -32t-5.5 -38h-113zM-1233 990q0 41 14.5 75.5t42 59.5t66.5 39t88 14t88 -14t66.5 -39t42 -59.5t14.5 -75.5h-112q0 20 -5.5 38t-17 32t-30.5 22.5t-46 8.5 t-45.5 -8.5t-30 -22.5t-16.5 -32t-5 -38h-114zM-1409 487q0 41 14.5 75.5t42 59.5t66.5 39t87 14q49 0 88 -14t66.5 -39t42 -59.5t14.5 -75.5h-112q0 20 -5 38t-17 32t-31 22.5t-46 8.5q-26 0 -44.5 -8.5t-30 -22.5t-17 -32t-5.5 -38h-113zM-1243 -32q0 41 14.5 75.5 t42 59.5t66.5 39t87 14q49 0 88.5 -14t67 -39t42 -59.5t14.5 -75.5h-113q0 20 -5 38t-17 32t-31 22.5t-46 8.5q-26 0 -44.5 -8.5t-30 -22.5t-16.5 -32t-5 -38h-114z" />
<glyph unicode="&#x489;" horiz-adv-x="0" d="M-563 -60l11 -14l-122 -339h-96l70 353h137zM-758 1126l-12 14l122 338h96l-70 -352h-136zM-80 631l13 12l332 -124v-98l-345 71v139zM-1244 433l-13 -12l-333 124v98l346 -71v-139zM-320 1002l2 16l320 153l68 -68l-293 -200zM-1004 21l-2 -17l-320 -153l-69 69l294 200 zM-1144 860l-17 2l-148 326l65 69l198 -299zM-182 161l17 -2l149 -325l-66 -71l-197 299z" />
<glyph unicode="&#x48a;" d="M805 1456h282v-1456h-282v929l-413 -929h-281v1456h281v-930zM932 1835q0 -65 -23.5 -119t-68 -92.5t-107.5 -60t-141 -21.5q-79 0 -142 21.5t-107.5 60t-68 92.5t-23.5 119h200q0 -26 7.5 -50.5t24.5 -43t43.5 -29.5t65.5 -11q38 0 64.5 11t43 29.5t24 43t7.5 50.5h201z M1311 7q0 -57 -15.5 -117t-42.5 -116t-64.5 -106t-80.5 -89l-147 76q19 36 35.5 73t28.5 78t19 87t7 101v234h261z" />
<glyph unicode="&#x48b;" d="M806 1082h278v-1082h-278v690l-407 -690h-278v1082h278v-690zM934 1526q0 -65 -23.5 -119t-68 -92.5t-107.5 -60t-141 -21.5q-79 0 -142 21.5t-107.5 60t-68 92.5t-23.5 119h200q0 -26 7.5 -50.5t24.5 -43t43.5 -29.5t65.5 -11q38 0 64.5 11t43 29.5t24 43t7.5 50.5h201z M1309 7q0 -57 -15.5 -117t-42.5 -116t-64.5 -106t-80.5 -89l-147 76q19 36 35.5 73t28.5 78t19 87t7 101v234h261z" />
<glyph unicode="&#x48c;" d="M647 1090h-234v-172h164q126 0 226.5 -32.5t170 -91.5t106.5 -143t37 -186q0 -104 -37 -189.5t-106.5 -146.5t-170 -95t-226.5 -34h-446v1090h-176v180h176v186h282v-186h234v-180zM413 692v-466h164q66 0 114.5 19t81 52t48 77t15.5 93q0 47 -15.5 88t-48 71.5t-81 48 t-114.5 17.5h-164z" />
<glyph unicode="&#x48d;" d="M713 803h-297v-85h273q109 0 195 -26.5t144.5 -74t89.5 -114t31 -146.5q0 -77 -31 -142.5t-89.5 -113t-144.5 -74.5t-195 -27h-551v803h-117v180h117v99h278v-99h297v-180zM416 495v-273h273q49 0 83.5 11t56.5 29.5t32 42.5t10 51q0 28 -10 53.5t-32 44.5t-56.5 30 t-83.5 11h-273z" />
<glyph unicode="&#x48e;" d="M1117 403l-129 -57l-428 574l128 59zM430 534v-534h-281v1456h498q119 0 215 -34.5t163.5 -96t104 -147.5t36.5 -191q0 -98 -36.5 -181t-104 -143.5t-163.5 -94.5t-215 -34h-217zM430 762h217q60 0 104 18t73.5 49t44 71.5t14.5 84.5q0 51 -14.5 95t-44 77t-73.5 52 t-104 19h-217v-466z" />
<glyph unicode="&#x48f;" d="M1090 -8l-110 -81l-413 451l108 81zM1113 531q0 -118 -27.5 -219t-81 -174.5t-132.5 -115.5t-181 -42q-87 0 -153 30t-115 84v-510h-278v1498h257l10 -106q50 60 118 93t159 33q103 0 182 -39.5t133 -112t81.5 -174t27.5 -224.5v-21zM835 552q0 68 -12.5 127.5t-39 103 t-68 68.5t-100.5 25q-73 0 -119.5 -28.5t-72.5 -80.5v-452q26 -51 72.5 -81.5t121.5 -30.5q59 0 100.5 26t67.5 71t38 104.5t12 126.5v21z" />
<glyph unicode="&#x490;" d="M1127 1229h-33v-1h-661v-1228h-281v1456h696v367h279v-594z" />
<glyph unicode="&#x491;" d="M1119 857h-39v-1h-654v-856h-277v1082h693v315h277v-540z" />
<glyph unicode="&#x492;" d="M667 663h-245v-663h-281v663h-166v180h166v613h942v-228h-661v-385h245v-180z" />
<glyph unicode="&#x493;" d="M647 455h-227v-455h-277v455h-188v180h188v447h931v-226h-654v-221h227v-180z" />
<glyph unicode="&#x494;" d="M1083 1228h-661v-392h172q137 0 248.5 -37t190.5 -110.5t122 -183.5t43 -256q0 -111 -28.5 -215.5t-92.5 -186.5t-166 -131.5t-249 -49.5v213q56 0 96.5 16t69 42.5t46.5 62.5t28 75.5t13.5 81t3.5 79.5q1 187 -82.5 279.5t-242.5 92.5h-172v-608h-281v1456h942v-228z " />
<glyph unicode="&#x495;" d="M1080 856h-654v-193h171q122 0 224 -30.5t176 -91t115.5 -152t41.5 -212.5q1 -59 -20 -127t-66.5 -132t-116.5 -118.5t-170 -85.5l-112 189q103 42 155 108t52 166q0 64 -19.5 113t-56 81t-88 48.5t-115.5 16.5h-171v-436h-277v1082h931v-226z" />
<glyph unicode="&#x496;" d="M785 587h-52v-587h-246v587h-56l-143 -587h-296l246 774l-224 682h294l134 -615h45v615h246v-615h42l127 615h294l-219 -682l242 -774h-298zM1342 -356h-278v557h278v-557z" />
<glyph unicode="&#x497;" d="M781 409h-53v-409h-241v409h-52l-125 -409h-276l225 575l-217 507h280l124 -409h41v409h241v-409h43l124 409h281l-215 -501l227 -581h-281zM1334 -356h-278v557h278v-557z" />
<glyph unicode="&#x498;" d="M1150 1061q0 -50 -15.5 -96t-44.5 -86.5t-71 -73.5t-95 -57q121 -42 184.5 -127.5t63.5 -212.5q0 -102 -41.5 -182t-115 -134.5t-176 -83t-223.5 -28.5q-98 0 -194 24.5t-172.5 76t-124 131.5t-47.5 192h282q0 -42 18.5 -78t52.5 -63t81 -42.5t104 -15.5q66 0 117 15.5 t86 43.5t53 65.5t18 81.5q0 117 -65.5 169t-192.5 52h-196v220h196q63 0 107.5 14.5t73 41.5t42 64.5t13.5 83.5q0 39 -15 74.5t-46 61.5t-78.5 41.5t-112.5 15.5q-50 0 -93 -13t-74.5 -37t-50 -58t-18.5 -76h-281q0 96 41.5 172t112.5 129t164.5 81.5t198.5 28.5 q121 0 220 -26.5t168.5 -79t107.5 -130t38 -179.5zM749 -509h-278v557h278v-557z" />
<glyph unicode="&#x499;" d="M1099 786q0 -72 -50.5 -132.5t-140.5 -96.5q102 -32 156 -95.5t54 -155.5q0 -77 -38.5 -137.5t-106.5 -102.5t-161.5 -64t-204.5 -22q-91 0 -179.5 20t-158 61.5t-112.5 105.5t-43 153h277q0 -26 15.5 -49.5t44.5 -41.5t72 -29t97 -11q55 0 96.5 11.5t69 30.5t41 43 t13.5 50q0 73 -57 104.5t-163 31.5h-204v185h204q104 0 152.5 33.5t48.5 86.5q0 23 -11 45.5t-35.5 40t-63 28.5t-92.5 11q-45 0 -83.5 -8t-67 -23.5t-44.5 -37.5t-16 -50h-277q0 77 37.5 138.5t102 104t151.5 65t185 22.5q110 0 201 -20.5t155.5 -60t100 -98.5t35.5 -136z M749 -499h-278v557h278v-557z" />
<glyph unicode="&#x49a;" d="M549 598h-117v-598h-281v1456h281v-641h69l381 641h325l-434 -701l451 -755h-326zM1296 -355h-278v557h278v-557z" />
<glyph unicode="&#x49b;" d="M574 405h-163v-405h-278v1082h278v-414h144l291 414h350l-397 -521l429 -561h-368zM1350 -356h-278v557h278v-557z" />
<glyph unicode="&#x49c;" d="M1263 1456l-313 -655l353 -801h-357l-253 603h-29v-229h-167v229h-81v-603h-282v1456h282v-599h81v257h167v-257h17l237 599h345z" />
<glyph unicode="&#x49d;" d="M1195 1082l-298 -515l318 -567h-356l-177 405h-50v-172h-153v172h-69v-405h-278v1082h278v-414h69v192h153v-192h45l169 414h349z" />
<glyph unicode="&#x49e;" horiz-adv-x="1249" d="M569 598h-117v-598h-281v1137h-190v180h190v139h281v-139h221v-180h-221v-322h69l381 641h325l-434 -701l451 -755h-326z" />
<glyph unicode="&#x49f;" horiz-adv-x="1249" d="M568 447l-126 -117v-330h-278v1208h-199v180h199v148h278v-148h215v-180h-215v-550l84 96l299 328h334l-408 -451l465 -631h-341z" />
<glyph unicode="&#x4a0;" d="M664 591h-58v-591h-280v1215h-311v241h591v-579h53l211 579h325l-301 -698l337 -758h-323z" />
<glyph unicode="&#x4a1;" d="M687 393h-68v-393h-285v840h-307v242h592v-402h70l153 402h354l-275 -512l304 -570h-372z" />
<glyph unicode="&#x4a2;" d="M1092 0h-278v631h-412v-631h-279v1456h279v-597h412v597h278v-1456zM1271 -356h-278v557h278v-557z" />
<glyph unicode="&#x4a3;" d="M1083 0h-279v420h-404v-420h-279v1082h279v-438h404v438h279v-1082zM1271 -356h-278v557h278v-557z" />
<glyph unicode="&#x4a4;" d="M332 862h263v594h601v-241h-332v-1215h-269v614h-263v-614h-269v1456h269v-594z" />
<glyph unicode="&#x4a5;" d="M372 651h266v431h554v-241h-268v-841h-286v412h-266v-412h-286v1082h286v-431z" />
<glyph unicode="&#x4a6;" d="M751 834h21q117 -1 198 -53t131 -135.5t73 -188t23 -211.5q0 -76 -9.5 -149.5t-31 -139t-55 -121t-81.5 -96t-111 -64t-143 -24.5l-2 228q37 1 61.5 17.5t40 44t24 62.5t12 73.5t4 78t0.5 74.5q0 27 -1 64.5t-5.5 77.5t-13 79t-23.5 70t-38 50.5t-55 20.5h-19v-592h-268 v1207h-165v-1207h-268v1456h701v-622z" />
<glyph unicode="&#x4a7;" d="M762 674q102 -3 182 -41t135.5 -103t85.5 -152.5t30 -190.5q0 -67 -20 -141.5t-60 -140t-99 -115t-135 -67.5l-117 196q42 16 69 44.5t42.5 64.5t21.5 77t6 82q0 43 -5.5 85t-21.5 76.5t-43.5 57t-70.5 26.5v-432h-268v841h-143v-841h-267v1082h678v-408z" />
<glyph unicode="&#x4a8;" d="M1198 -17q-85 0 -161 15.5t-144 44.5q-54 -31 -114 -47.5t-128 -16.5q-126 0 -230 48t-178 132t-114.5 198t-40.5 246v322q0 117 28 218t79.5 175t123.5 116.5t159 42.5v-237q-23 0 -40.5 -23.5t-29.5 -65.5t-18.5 -99.5t-6.5 -124.5v-324q0 -85 18 -156.5t52 -123 t84 -80.5t114 -29h12q-73 88 -112.5 202.5t-39.5 250.5v320q0 104 23 193t65.5 154.5t102.5 103t133 37.5q79 0 143.5 -39t111 -109.5t72 -167.5t25.5 -213v-303q0 -124 -29.5 -231.5t-84.5 -193.5q55 -16 125 -16v-219zM778 665q0 -85 20 -158t58 -132q24 55 37 122.5 t13 145.5v332q0 75 -5 126t-14 81.5t-22 44t-30 13.5q-29 0 -43 -58t-14 -194v-323z" />
<glyph unicode="&#x4a9;" d="M1236 -24q-101 0 -186.5 13.5t-157.5 39.5q-59 -24 -125.5 -37t-140.5 -13q-125 0 -228 42.5t-176.5 117t-114 176t-40.5 219.5v93q0 102 30.5 188.5t85.5 150.5t132 100t171 36v-232q-60 -7 -93.5 -72t-33.5 -169v-95q0 -69 18.5 -128t53 -102t84 -67.5t111.5 -24.5 q-54 68 -80 149.5t-26 174.5v148q0 89 24 165.5t68.5 132.5t107 87.5t139.5 31.5q80 0 145.5 -35.5t111.5 -97t71 -145.5t25 -181v-143q0 -101 -35 -188t-99 -155q72 -15 158 -15v-165zM732 524q0 -72 25 -133.5t73 -111.5q50 41 76.5 101t26.5 133v145q0 44 -7 83 t-19.5 67.5t-31 45t-42.5 16.5t-42.5 -15t-31.5 -41t-20 -61.5t-7 -76.5v-152z" />
<glyph unicode="&#x4aa;" d="M1142 456q-7 -110 -47.5 -198t-108.5 -150t-162 -95.5t-208 -33.5q-129 0 -229 47.5t-168 133t-104 205.5t-36 264v196q0 145 38 265t108 206t169.5 133.5t223.5 47.5q120 0 213.5 -34t159.5 -97t104 -154t48 -205h-280q-4 65 -19.5 114t-45 81.5t-74 49t-106.5 16.5 q-65 0 -113 -28t-79.5 -82t-46.5 -132.5t-15 -178.5v-198q0 -215 60.5 -318t191.5 -103q110 0 174 58.5t71 189.5h281zM754 -494h-278v557h278v-557z" />
<glyph unicode="&#x4ab;" d="M620 202q41 0 78 12t65 34t43.5 53t13.5 69h262q2 -84 -34.5 -156t-99.5 -124t-146.5 -81.5t-176.5 -29.5q-126 0 -221 42.5t-158.5 116.5t-96 173.5t-32.5 213.5v30q0 114 32 213.5t96 173.5t158.5 117t219.5 43q100 0 185 -30t146.5 -84.5t95.5 -132t32 -173.5h-262 q2 40 -12 76t-41 62t-65 41.5t-83 15.5q-66 0 -109 -27t-68.5 -72t-36 -103t-10.5 -120v-30q0 -63 10 -121.5t35.5 -103t69 -71.5t110.5 -27zM754 -494h-278v557h278v-557z" />
<glyph unicode="&#x4ac;" d="M1201 1227h-449v-1227h-282v1227h-443v229h1174v-229zM918 -356h-278v557h278v-557z" />
<glyph unicode="&#x4ad;" d="M1202 859h-417v-859h-279v859h-413v223h1109v-223zM973 -356h-278v557h278v-557z" />
<glyph unicode="&#x4ae;" d="M628 785l287 671h309l-458 -952l-1 -504h-280l-1 516l-451 940h308z" />
<glyph unicode="&#x4af;" d="M916 1082h290l-445 -1063v-436h-278v440l-443 1059h291l281 -773l14 -65l17 70z" />
<glyph unicode="&#x4b0;" d="M966 523h-191l-9 -19l-1 -504h-280l-1 516l-4 7h-206v180h120l-361 753h308l287 -671l287 671h309l-363 -753h105v-180z" />
<glyph unicode="&#x4b1;" d="M976 7h-215v-424h-278v424h-199v180h130l-374 895h291l281 -773l14 -65l17 70l273 768h290l-375 -895h145v-180z" />
<glyph unicode="&#x4b2;" d="M624 934l259 522h330l-410 -722l420 -734h-328l-267 530l-266 -530h-332l420 734l-409 722h328zM1270 -356h-278v557h278v-557z" />
<glyph unicode="&#x4b3;" d="M636 744l238 338h299l-363 -531l376 -551h-300l-249 354l-247 -354h-301l376 551l-362 531h299zM1189 -356h-278v557h278v-557z" />
<glyph unicode="&#x4b4;" d="M233 1215h-232v241h731v-241h-221v-967h322v1208h279v-1210h152l-16 -597h-263v351h-752v1215z" />
<glyph unicode="&#x4b5;" d="M221 841h-188v241h646v-241h-172v-601h273v842h287v-844h148l-19 -559h-268v321h-707v841z" />
<glyph unicode="&#x4b6;" d="M1119 1456v-1456h-282v555q-26 -7 -54 -12.5t-55.5 -9t-53 -5.5t-44.5 -2q-108 0 -195.5 27.5t-149 85.5t-95 148.5t-33.5 215.5v453h281v-453q0 -73 11.5 -121t35.5 -76.5t60 -40t85 -11.5q20 0 45 1.5t52.5 5t55.5 8.5t54 12v675h282zM1305 -356h-278v557h278v-557z " />
<glyph unicode="&#x4b7;" d="M1121 0h-279v349q-52 -10 -106.5 -15.5t-105.5 -5.5q-117 0 -211 24.5t-159.5 75t-100.5 128.5t-35 186v340h278v-340q0 -54 13.5 -90.5t41.5 -58.5t71 -31.5t102 -9.5q56 0 108 5.5t104 16.5v508h279v-1082zM1309 -356h-278v557h278v-557z" />
<glyph unicode="&#x4b8;" d="M667 287h-165v756h165v-756zM1095 1456v-1456h-282v555q-26 -7 -54 -12.5t-55.5 -9t-53 -5.5t-44.5 -2q-108 0 -195.5 27.5t-149 85.5t-95 148.5t-33.5 215.5v453h281v-453q0 -73 11.5 -121t35.5 -76.5t60 -40t85 -11.5q20 0 45 1.5t52.5 5t55.5 8.5t54 12v675h282z" />
<glyph unicode="&#x4b9;" d="M697 165h-165v640h165v-640zM1113 0h-279v349q-52 -10 -106.5 -15.5t-105.5 -5.5q-117 0 -211 24.5t-159.5 75t-100.5 128.5t-35 186v340h278v-340q0 -54 13.5 -90.5t41.5 -58.5t71 -31.5t102 -9.5q56 0 108 5.5t104 16.5v508h279v-1082z" />
<glyph unicode="&#x4ba;" d="M119 0v1456h291v-547q51 11 102.5 17.5t108.5 6.5q111 0 202 -31.5t156.5 -93t101.5 -152.5t37 -209l-6 -447h-292l-6 447q0 58 -10 102t-32.5 74t-59.5 46t-91 16q-56 0 -107.5 -8t-103.5 -19v-658h-291z" />
<glyph unicode="&#x4bb;" d="M419 933q54 79 131.5 124t173.5 45q85 0 156 -25.5t122 -79.5t79.5 -138.5t28.5 -203.5v-655h-278v657q0 58 -14.5 100t-41.5 68t-65 38.5t-86 12.5q-70 0 -121.5 -25t-84.5 -70v-781h-278v1536h278v-603z" />
<glyph unicode="&#x4bc;" d="M746 -23q-128 0 -226 48.5t-165.5 132.5t-103 197t-36.5 244v57q-63 16 -113 50t-83.5 87t-47.5 125t-5 164h202q-1 -69 9 -115.5t39 -72.5q5 115 41 220.5t99 186t149.5 127.5t193.5 47q89 0 158 -26t120.5 -71.5t87 -108t57.5 -135t32 -153t10 -162.5l-2 -196h-645v-24 q1 -68 15 -131.5t46 -112.5t85 -78.5t132 -30.5q36 0 72 4.5t69 12t62.5 17.5t52.5 21l49 -248q-61 -32 -154 -54t-200 -22zM699 1204q-48 0 -82.5 -30t-56 -77.5t-32 -107t-11.5 -117.5h353v47q0 47 -5.5 97.5t-23.5 92t-52 68.5t-90 27z" />
<glyph unicode="&#x4bd;" d="M753 -20q-98 0 -182 36t-146.5 100.5t-100.5 154.5t-45 197q-61 17 -109.5 52t-81.5 86t-50 116t-15 142h185q5 -69 24 -117.5t57 -74.5q16 91 54 170t95 136.5t132.5 90.5t166.5 33q106 0 187 -41t135 -112t81.5 -166t28.5 -203l-1 -134h-589q7 -48 23 -89.5t42 -72 t61.5 -48t80.5 -17.5t78.5 7t61 20t50.5 30.5t46 37.5l120 -156q-69 -85 -168 -131.5t-221 -46.5zM735 861q-36 0 -62.5 -18t-44.5 -48t-29 -69t-17 -80h296v26q-2 40 -10.5 74.5t-26 60t-44 40t-62.5 14.5z" />
<glyph unicode="&#x4be;" d="M746 -23q-128 0 -226 48.5t-165.5 132.5t-103 197t-36.5 244v57q-63 16 -113 50t-83.5 87t-47.5 125t-5 164h202q-1 -69 9 -115.5t39 -72.5q5 115 41 220.5t99 186t149.5 127.5t193.5 47q89 0 158 -26t120.5 -71.5t87 -108t57.5 -135t32 -153t10 -162.5l-2 -196h-645v-24 q1 -68 15 -131.5t46 -112.5t85 -78.5t132 -30.5q36 0 72 4.5t69 12t62.5 17.5t52.5 21l49 -248q-61 -32 -154 -54t-200 -22zM699 1204q-48 0 -82.5 -30t-56 -77.5t-32 -107t-11.5 -117.5h353v47q0 47 -5.5 97.5t-23.5 92t-52 68.5t-90 27zM880 -496h-278v557h278v-557z" />
<glyph unicode="&#x4bf;" d="M753 -20q-98 0 -182 36t-146.5 100.5t-100.5 154.5t-45 197q-61 17 -109.5 52t-81.5 86t-50 116t-15 142h185q5 -69 24 -117.5t57 -74.5q16 91 54 170t95 136.5t132.5 90.5t166.5 33q106 0 187 -41t135 -112t81.5 -166t28.5 -203l-1 -134h-589q7 -48 23 -89.5t42 -72 t61.5 -48t80.5 -17.5t78.5 7t61 20t50.5 30.5t46 37.5l120 -156q-69 -85 -168 -131.5t-221 -46.5zM735 861q-36 0 -62.5 -18t-44.5 -48t-29 -69t-17 -80h296v26q-2 40 -10.5 74.5t-26 60t-44 40t-62.5 14.5zM888 -493h-278v557h278v-557z" />
<glyph unicode="&#x4c0;" d="M193 1456h842v-227h-284v-1003h284v-226h-842v226h277v1003h-277v227z" />
<glyph unicode="&#x4c1;" d="M785 587h-52v-587h-246v587h-56l-143 -587h-296l246 774l-224 682h294l134 -615h45v615h246v-615h42l127 615h294l-219 -682l242 -774h-298zM963 1848q0 -65 -23.5 -119t-68 -92.5t-107.5 -60t-141 -21.5q-79 0 -142 21.5t-107.5 60t-68 92.5t-23.5 119h200 q0 -26 7.5 -50.5t24.5 -43t43.5 -29.5t65.5 -11q38 0 64.5 11t43 29.5t24 43t7.5 50.5h201z" />
<glyph unicode="&#x4c2;" d="M781 409h-53v-409h-241v409h-52l-125 -409h-276l225 575l-217 507h280l124 -409h41v409h241v-409h43l124 409h281l-215 -501l227 -581h-281zM955 1526q0 -65 -23.5 -119t-68 -92.5t-107.5 -60t-141 -21.5q-79 0 -142 21.5t-107.5 60t-68 92.5t-23.5 119h200 q0 -26 7.5 -50.5t24.5 -43t43.5 -29.5t65.5 -11q38 0 64.5 11t43 29.5t24 43t7.5 50.5h201z" />
<glyph unicode="&#x4c3;" d="M808 818q95 -20 171 -65.5t129.5 -117t82.5 -169t29 -220.5q0 -110 -28.5 -214.5t-92.5 -187t-166 -132.5t-250 -50v215q56 0 96.5 16t69 43t46 63t27.5 75.5t13.5 80.5t3.5 79q1 187 -72 278.5t-210 91.5h-211v-604h-282v1456h282v-593h115l269 593h346z" />
<glyph unicode="&#x4c4;" d="M811 602q74 -22 134 -60.5t102.5 -94t65.5 -127.5t23 -162q1 -59 -19.5 -125.5t-63.5 -129t-110.5 -115.5t-160.5 -84l-112 189q91 42 139 105t49 160q0 60 -17.5 105t-49.5 75.5t-78.5 47t-103.5 19.5h-179v-405h-278v1082h278v-414h117l248 414h350z" />
<glyph unicode="&#x4c5;" d="M1103 1456v-1456h-282v1228h-301l-5 -534q-3 -191 -29.5 -323t-76.5 -214.5t-125 -119.5t-175 -37h-70v226h40q49 5 78.5 29.5t46 78t22.5 141t8 219.5l6 762h863zM1326 7q0 -57 -15.5 -117t-42.5 -116t-64.5 -106t-80.5 -89l-147 76q19 36 35.5 73t28.5 78t19 87t7 101 v234h261z" />
<glyph unicode="&#x4c6;" d="M1083 1082v-1082h-279v856h-294v-235q0 -155 -21.5 -271t-71 -194t-131 -117t-201.5 -39h-49l-2 229h33q53 0 85.5 21t50 68t23.5 121.5t5 181.5v461h852zM1308 7q0 -57 -15.5 -117t-42.5 -116t-64.5 -106t-80.5 -89l-147 76q19 36 35.5 73t28.5 78t19 87t7 101v234h261z " />
<glyph unicode="&#x4c7;" d="M422 1456v-626h376v626h282v-1495q0 -96 -26 -170.5t-74.5 -125t-118.5 -76.5t-157 -26q-38 0 -70.5 3.5t-70.5 13.5l14 222q22 -6 48 -8.5t51 -2.5q59 0 90.5 43.5t31.5 126.5v643h-376v-604h-281v1456h281z" />
<glyph unicode="&#x4c8;" d="M421 1082v-438h374v438h278v-1122q0 -96 -25.5 -170.5t-73.5 -124.5t-117.5 -76t-156.5 -26q-38 0 -70 3.5t-70 13.5l15 221q21 -6 47 -9.5t51 -3.5q59 0 90.5 44t31.5 128v460h-374v-420h-278v1082h278z" />
<glyph unicode="&#x4c9;" d="M1092 0h-278v631h-412v-631h-279v1456h279v-597h412v597h278v-1456zM1308 7q0 -57 -15.5 -117t-42.5 -116t-64.5 -106t-80.5 -89l-147 76q19 36 35.5 73t28.5 78t19 87t7 101v234h261z" />
<glyph unicode="&#x4ca;" d="M1083 0h-279v420h-404v-420h-279v1082h279v-438h404v438h279v-1082zM1308 7q0 -57 -15.5 -117t-42.5 -116t-64.5 -106t-80.5 -89l-147 76q19 36 35.5 73t28.5 78t19 87t7 101v234h261z" />
<glyph unicode="&#x4cb;" d="M1119 1456v-1456h-282v555q-26 -7 -54 -12.5t-55.5 -9t-53 -5.5t-44.5 -2q-108 0 -195.5 27.5t-149 85.5t-95 148.5t-33.5 215.5v453h281v-453q0 -73 11.5 -121t35.5 -76.5t60 -40t85 -11.5q20 0 45 1.5t52.5 5t55.5 8.5t54 12v675h282zM924 -356h-278v557h278v-557z" />
<glyph unicode="&#x4cc;" d="M1121 0h-279v349q-52 -10 -106.5 -15.5t-105.5 -5.5q-117 0 -211 24.5t-159.5 75t-100.5 128.5t-35 186v340h278v-340q0 -54 13.5 -90.5t41.5 -58.5t71 -31.5t102 -9.5q56 0 108 5.5t104 16.5v508h279v-1082zM927 -356h-278v557h278v-557z" />
<glyph unicode="&#x4cd;" d="M476 1456l138 -547l157 547h349v-1456h-258v431l12 681l-191 -632h-139l-171 605l12 -654v-431h-258v1456h349zM1352 7q0 -57 -15.5 -117t-42.5 -116t-64.5 -106t-80.5 -89l-147 76q19 36 35.5 73t28.5 78t19 87t7 101v234h261z" />
<glyph unicode="&#x4ce;" d="M609 331l152 751h348v-1082h-246v603l-161 -603h-187l-156 588v-588h-246v1082h346zM1336 7q0 -57 -15.5 -117t-42.5 -116t-64.5 -106t-80.5 -89l-147 76q19 36 35.5 73t28.5 78t19 87t7 101v234h261z" />
<glyph unicode="&#x4cf;" d="M193 1456h842v-227h-284v-1003h284v-226h-842v226h277v1003h-277v227z" />
<glyph unicode="&#x4d0;" d="M847 304h-437l-86 -304h-296l477 1456h255l468 -1456h-296zM479 543h302l-149 536zM974 1857q0 -65 -23.5 -119t-68 -92.5t-107.5 -60t-141 -21.5q-79 0 -142 21.5t-107.5 60t-68 92.5t-23.5 119h200q0 -26 7.5 -50.5t24.5 -43t43.5 -29.5t65.5 -11q38 0 64.5 11t43 29.5 t24 43t7.5 50.5h201z" />
<glyph unicode="&#x4d1;" d="M817 0q-10 20 -17 46t-12 55q-23 -25 -53 -47t-66.5 -38.5t-80.5 -26t-95 -9.5q-83 0 -152.5 24t-119.5 67t-78 102.5t-28 129.5q0 171 127.5 264.5t380.5 93.5h155v64q0 78 -51 123.5t-147 45.5q-85 0 -124 -36.5t-39 -97.5h-278q0 69 30.5 131t89 109t143 74.5 t193.5 27.5q98 0 182.5 -24t146.5 -71t97 -118.5t35 -165.5v-464q0 -87 11 -144t32 -98v-17h-282zM552 195q42 0 78 10t65 26t50 36.5t33 41.5v186h-142q-65 0 -111 -12.5t-75 -35t-43 -54t-14 -68.5q0 -56 39.5 -93t119.5 -37zM938 1535q0 -65 -23.5 -119t-68 -92.5 t-107.5 -60t-141 -21.5q-79 0 -142 21.5t-107.5 60t-68 92.5t-23.5 119h200q0 -26 7.5 -50.5t24.5 -43t43.5 -29.5t65.5 -11q38 0 64.5 11t43 29.5t24 43t7.5 50.5h201z" />
<glyph unicode="&#x4d2;" d="M847 304h-437l-86 -304h-296l477 1456h255l468 -1456h-296zM479 543h302l-149 536zM252 1714q0 26 10 49t28 40t43 26.5t55 9.5t55 -9.5t43 -26.5t28 -40t10 -49t-10 -49t-28 -39.5t-43 -26t-55 -9.5t-55 9.5t-43 26t-28 39.5t-10 49zM732 1714q0 26 10 49t28 39.5t43 26 t55 9.5t55 -9.5t43 -26t28 -39.5t10 -49q0 -27 -10 -50t-28 -40t-43 -26.5t-55 -9.5t-55 9.5t-43 26.5t-28 40t-10 50z" />
<glyph unicode="&#x4d3;" d="M817 0q-10 20 -17 46t-12 55q-23 -25 -53 -47t-66.5 -38.5t-80.5 -26t-95 -9.5q-83 0 -152.5 24t-119.5 67t-78 102.5t-28 129.5q0 171 127.5 264.5t380.5 93.5h155v64q0 78 -51 123.5t-147 45.5q-85 0 -124 -36.5t-39 -97.5h-278q0 69 30.5 131t89 109t143 74.5 t193.5 27.5q98 0 182.5 -24t146.5 -71t97 -118.5t35 -165.5v-464q0 -87 11 -144t32 -98v-17h-282zM552 195q42 0 78 10t65 26t50 36.5t33 41.5v186h-142q-65 0 -111 -12.5t-75 -35t-43 -54t-14 -68.5q0 -56 39.5 -93t119.5 -37zM215 1392q0 26 10 49t28 40t43 26.5t55 9.5 t55 -9.5t43 -26.5t28 -40t10 -49t-10 -49t-28 -39.5t-43 -26t-55 -9.5t-55 9.5t-43 26t-28 39.5t-10 49zM695 1392q0 26 10 49t28 39.5t43 26t55 9.5t55 -9.5t43 -26t28 -39.5t10 -49q0 -27 -10 -50t-28 -40t-43 -26.5t-55 -9.5t-55 9.5t-43 26.5t-28 40t-10 50z" />
<glyph unicode="&#x4d4;" d="M1177 0h-536v334h-217l-94 -334h-282l479 1456h629v-228h-248v-366h217v-227h-217v-409h269v-226zM641 574v532l-150 -532h150z" />
<glyph unicode="&#x4d5;" d="M868 -20q-90 0 -157.5 31t-112.5 88q-18 -24 -41.5 -46t-53 -38t-64 -25.5t-75.5 -9.5q-77 0 -136 22.5t-99.5 63.5t-61.5 100t-21 131q0 169 114 260t337 91h3v119q0 53 -18.5 81.5t-59.5 28.5q-47 0 -69.5 -23.5t-22.5 -77.5l-261 9q0 72 23.5 131t67.5 100t106.5 63.5 t141.5 22.5q145 0 232 -75q42 36 98.5 56t128.5 19q74 0 134.5 -28t103 -80t66 -127t23.5 -168v-245h-451v-91q0 -36 9 -65.5t30 -50.5t54 -32.5t81 -11.5q34 0 61 4.5t49.5 11t42.5 15.5t41 18l55 -192q-20 -16 -50.5 -30.5t-69 -25.5t-83.5 -17.5t-95 -6.5zM743 643h195 v112q0 57 -21.5 89.5t-69.5 32.5q-34 0 -54.5 -13t-31.5 -36t-14.5 -55t-3.5 -69v-61zM434 185q17 0 34 7t32 19v253h-1q-43 0 -75.5 -14t-55 -37.5t-34 -54.5t-11.5 -65q0 -49 27.5 -78.5t83.5 -29.5z" />
</font>
</defs>
</svg>
